Ссылка на приватное зеркало нашего сайта всего за 1$. Внимание количество ограничено!!!

2 сезон

iTunes

1 сезон

1

iTunes

iTunes

iTunes

1 сезон

RePack

30

ИГРА 18+

pack

ВАЖНО

!!Акция!!

Alien_RageХит недели

RePack

MK11
pack

Забери бонус

RePack

jed

!!Акция!!

Alien_Rage

RePack

fifa19

RePack

Assassins Creed: Odyssey

RePack

NEED FOR SPEED™ PAYBACK

4 сезон

9 сезон

Бесстыжие 9 сезон

Все сериалы

все сериалы на PB.wtf

RePack

FAR CRY 5
  

Территория (Александр Мельник ) [2014, драма, приключения, WEB-DLRip, iTunes] piratbit.pw

Территория через торрент piratbit.pw

Размер: 1.46 GB | Добавлен: 5 лет 5 мес. назад | Торрент скачан:6271 раз
Скачать  

14-05-2015 19:33 Территория Скачать торрент  


Территория


ИНФОРМАЦИЯ:
Год выпуска:2014
Страна: Россия
Жанр: драма, приключения
Продолжительность: 02:31:52
Перевод: Оригинал [iTunes]
Режиссер: Александр Мельник

В Ролях:


Константин Лавроненко (Илья Николаевич Чинков), Григорий Добрыгин (Сергей Баклаков), Егор Бероев (Владимир Монголов), Ксения Кутепова (журналистка Сергушова), Евгений Цыганов (Андрей Гурин), Владислав Абашин (Жора Апрятин), Герасим Васильев (старик Кьяе), Константин Шелестун (Куценко), Константин Балакирев (Кефир), Олег Шапков (Седой), Пётр Фёдоров (дядя Костя), Виктор Жалсанов (Салахов)

Описание:
Территория - это место, где люди проверяются на прочность. Необозримые пространства, где тундра встречается с ледяными торосами Ледовитого океана. Суровый русский север, которому способны бросить вызов немногие. Геолог Илья Чинков, одержимый идеей найти легендарное золото Территории, собирает команду смельчаков, готовых поставить на карту все, включая собственные жизни.


ТЕХ.ДАННЫЕ:
Качество: WEB-DLRip
Формат: AVI
Видео кодек: XviD
Аудио кодек: AC3
Видео: XviD, 720x304 (2.35:1), 1397 kbps, 25 fps, 0,170 bpp
Аудио: AC3 / 5.1 / 48 kHz / 384 kbps / 16 bit



Код:

General
Complete name                            : D:\Торенты\Terr1r0ri9.2015.O.WEB-DLRip.1.46.avi
Format                                   : AVI
Format/Info                              : Audio Video Interleave
File size                                : 1.46 GiB
Duration                                 : 2h 31mn
Overall bit rate                         : 1 379 Kbps
Writing application                      : VirtualDubMod 1.5.10.3 | www.virtualdub-fr.org || (build 2550/release)
Writing library                          : VirtualDubMod build 2550/release

Video
ID                                       : 0
Format                                   : MPEG-4 Visual
Format profile                           : Advanced Simple@L5
Format settings, BVOP                    : 2
Format settings, QPel                    : No
Format settings, GMC                     : No warppoints
Format settings, Matrix                  : Default (MPEG)
Codec ID                                 : XVID
Codec ID/Hint                            : XviD
Duration                                 : 2h 31mn
Bit rate                                 : 1397  Kbps
Width                                    : 720 pixels
Height                                   : 304 pixels
Display aspect ratio                     : 2.35:1
Frame rate                               : 25.000 fps
Color space                              : YUV
Chroma subsampling                       : 4:2:0
Bit depth                                : 8 bits
Scan type                                : Progressive
Compression mode                         : Lossy
Bits/(Pixel*Frame)                       : 0.170
Stream size                              : 1 012 MiB (68%)
Writing library                          : XviD 1.2.1 (UTC 2008-12-04)

Audio
ID                                       : 1
Format                                   : AC-3
Format/Info                              : Audio Coding 3
Mode extension                           : CM (complete main)
Codec ID                                 : 2000
Duration                                 : 2h 31mn
Bit rate mode                            : Constant
Bit rate                                 : 384 Kbps
Channel(s)                               : 6 channels
Channel positions                        : Front: L C R, Side: L R, LFE
Sampling rate                            : 48.0 KHz
Bit depth                                : 16 bits
Compression mode                         : Lossy
Stream size                              : 417 MiB (28%)
Alignment                                : Split accross interleaves

Скриншоты:


© Оформление by Ворон
piratbit.pw



Скачать Территория через торрент http://pic.kartinco.top/images/6/ordi9.jpg Скачать фильм Территория через торрент бесплантно в хорошем качестве Описание: Территория - это место, где люди проверяются на прочность. Необозримые пространства, где тундра встречается с ледяными торосами ... 9.5 10 113
Info! Золотая раздача, скачанное не засчитывается.
Торрент: Зарегистрирован [2015-05-14 19:33] · скачан: 6 271 раз
Статус: √ проверено
Размер: 1.46 GB
Как cкачать? Как скачать Территория через торрент | qTorrent

% Раздел Тема Автор DL S | L
TNT serials [ 10.16 GB ] Территория / Сезон: 1 / Серии: 1-7 из 7 [2020 WEBRip 1080p ] bober100 Скачать
72 | 34
TNT serials [ 3.97 GB ] Территория / Сезон: 1 / Серии: 1-7 из 7 [2020 WEBRip-AVC] bober100 Скачать
5 | 2
TNT serials [ 4.3 GB ] Территория / Сезон: 1 / Серии: 1-7 из 7 [2020 SATRip] bober100 Скачать
7 | 0
TNT serials [ 11.61 GB ] Территория / Сезон: 1 / Серии: 1-7 из 7 [2020 HDTV 1080i] bober100 Скачать
5 | 0
TNT serials [ 6.95 GB ] Территория / Сезон: 1 / Серии: 1-7 из 7 [2020 WEBRip 720p ] bober100 Скачать
6 | 0
TNT serials [ 4.1 GB ] Территория / Сезон: 1 / Серии: 1-7 из 7 [2020 WEBRip ] bober100 Скачать
8 | 2
Наши сериалы [ 4.96 GB ] Территория / Сезон: 1 / Серии: 1-8 из 8 [2019 WEBRip-AVC] bober100 Скачать
6 | 0

28-11-2019 20:33  

Отключить всю рекламу на сайте

15-05-2015 11:58 Территория Скачать торрент  

как фильм народ?piratbit.pw



15-05-2015 14:13 Территория Скачать торрент  

Типа "Земля Санникова"?piratbit.pw



15-05-2015 23:20 Территория Скачать торрент  

Фильм однозначно не попадает в категорию "очередной высер".piratbit.pw



16-05-2015 03:13 Территория Скачать торрент  

Ждал,ждал и ....полное разочарование . У оператора нужно было камеру сразу отобрать .Такие виды !!!!А он все кружит и кружит .Деньги за вертолет что-ли отбивает ?piratbit.pw



16-05-2015 07:11 Территория Скачать торрент  

Отличный фильм. давно такого не снимали.piratbit.pw



17-05-2015 15:37 Территория Скачать торрент  

Дам 5000 очков, пусть будет в золоте)))piratbit.pw



17-05-2015 17:25 Территория Скачать торрент  

Фильм отличный получил удовольствие от просмотра !Но данная картина явно не подойдет для просмотра молодежи ,они ее просто напросто не поймут :)piratbit.pw



21-05-2015 21:02 Территория Скачать торрент  

Глубокий фильм о великом духе человеческом. Must see.piratbit.pw



22-05-2015 06:35 Территория Скачать торрент  

Хорошо поспал под этот филмец.piratbit.pw



26-05-2015 16:16 Территория Скачать торрент  

Нудный, скучный.piratbit.pw



28-05-2015 19:49 Территория Скачать торрент  

до земли санникова не дотягивает очень сильно.
герои почти не раскрыты в фильме, сделали бы уж тогда документалку, чем этот недофильм.

ток старик Кьяе понравился и опять же образ строили как мудреца, а назвали глупцом в итоге. ну тогда этот фильм на сток туп что я хз))piratbit.pw



04-06-2015 21:50 Территория Скачать торрент  

Приматам и одноклеточным смотреть категорически запрещается! Не засоряйте своими умственными испражнениями комментарии!piratbit.pw



    Дорогой пользователь! Огромная просьба, поблагодарите релизера, оцените раздачу и оставьте свои комментарий, если Вы скачали Территория через торрент бесплатно! Внесите свою лепту в развитие PiratBit!
    Комментировать посты могут только пользователи прошедшие не сложную регистрацию
    Показать сообщения:    

    Территория через торрент
    Скачать бесплатно Территория
    Территория скачать торрент
    Территория смотреть онлайн
    Cкачать фильм Территория бесплатно
    Территория скачать торрент в хорошем качестве
    Территория смотреть онлайн бесплатно в хорошем качестве


    Вы не можете начинать темы
    Вы не можете отвечать на сообщения
    Вы не можете редактировать свои сообщения
    Вы не можете удалять свои сообщения
    Вы не можете голосовать в опросах
    Вы не можете прикреплять файлы к сообщениям
    Вы можете скачивать файлы