1 сезон

1 сезон

iTunes

1

КиноПоиск HD

Кинопоиск HD

iTunes

13

1 сезон

RePack

30

Новинка

ВАЖНО

ИГРА 18+

pack

RePack

MK11
pack

Легкие деньги

RePack

jed

RePack

fifa19

RePack

RDR2

RePack

NEED FOR SPEED™ PAYBACK

4 сезон

9 сезон

Бесстыжие 9 сезон

Все сериалы

все сериалы на PB.wtf

RePack

FAR CRY 5
  
Magnet ссылка

Патруль времени / Predestination (Майкл Спириг, Питер Спириг) [2013 г., фантастика, триллер, драма, детектив, HDRip] AVO (Есарев) piratbit.pw

Патруль времени через торрент piratbit.pw

Размер: 2.02 GB | Добавлен: 5 лет 11 мес. назад | Торрент скачан:25 раз
Скачать  

13-05-2015 18:21 Патруль времени Скачать торрент  

Патруль времени / Predestination
Год выпуска: 2013
Страна: Австралия / Screen Australia, Screen Queensland, Blacklab Entertainment
Жанр: фантастика, триллер, драма, детектив
Продолжительность: 01:37:48
Перевод: Авторский одноголосый закадровый (Д. Есарев)

Режиссер: Майкл Спириг, Питер Спириг

IMDB 7.40 (109 955)


В ролях: Итан Хоук, Сара Снук, Ноа Тейлор, Кристофер Кирби, Кристофер Соммерс, Куни Хасимото, Сара Эль-Яафи, Пол Модер, Грант Пиро, Кристофер Бануорс

Описание: Будущее. Учёные создали машину времени, и с этим изобретением мир вышел на новый виток цивилизации. Благодаря изобретению появилась возможность исправлять ошибки прошлого, чтобы сделать настоящее лучше. Также машина дала возможность предотвращать преступления до их реализации. Для этой цели были отобраны лучшие полицейские. Главный герой — полицейский времени, который уже успел предотвратить огромное количество преступлений благодаря путешествиям сквозь время. Однако все его заслуги меркнут, потому что он неспособен остановить угрозу, намеревающуюся уничтожить Нью-Йорк.

Качество: HDRip
Формат: AVI
Видео кодек: XviD
Аудио кодек: AC3
Видео: 720x304 (2.37:1), 23.976 fps, XviD build 50 ~2499 kbps avg, 0.48 bit/pixel
Аудио: 48 kHz, AC3 Dolby Digital, 3/2 (L,C,R,l,r) + LFE ch, ~448 kbps
скриншот   скриншот   скриншот   скриншот   скриншот   скриншот  

Общее
Полное имя : F:\кино\Патруль времени.2014.А.HDRip.avi
Формат : AVI
Формат/Информация : Audio Video Interleave
Профиль формата : OpenDML
Размер файла : 2,02 Гбайт
Продолжительность : 1 ч. 37 м.
Общий поток : 2954 Кбит/сек
Программа кодирования : VirtualDubMod 1.5.10.3 | www.virtualdub-fr.org || (build 2550/release)
Библиотека кодирования : VirtualDubMod build 2550/release

Видео
Идентификатор : 0
Формат : MPEG-4 Visual
Профиль формата : Advanced Simple@L5
Параметр BVOP формата : 2
Параметр QPel формата : Нет
Параметр GMC формата : Без точки перехода
Параметр матрицы формата : Default (H.263)
Идентификатор кодека : XVID
Идентификатор кодека/Подсказка : XviD
Продолжительность : 1 ч. 37 м.
Битрейт : 2494 Кбит/сек
Ширина : 720 пикселей
Высота : 304 пикселя
Соотношение сторон : 2,35:1
Частота кадров : 23,976 кадра/сек
Цветовое пространство : YUV
Субдискретизация насыщенности : 4:2:0
Битовая глубина : 8 бит
Тип развёртки : Прогрессивная
Метод сжатия : С потерями
Бит/(Пиксели*Кадры) : 0.475
Размер потока : 1,70 Гбайт (84%)
Библиотека кодирования : XviD 1.2.1 (UTC 2008-12-04)

Аудио
Идентификатор : 1
Формат : AC-3
Формат/Информация : Audio Coding 3
Расширение режима : CM (complete main)
Параметр Endianness формата : Big
Идентификатор кодека : 2000
Продолжительность : 1 ч. 37 м.
Вид битрейта : Постоянный
Битрейт : 448 Кбит/сек
Каналы : 6 каналов
Расположение каналов : Front: L C R, Side: L R, LFE
Частота : 48,0 КГц
Битовая глубина : 16 бит
Метод сжатия : С потерями
Размер потока : 313 Мбайт (15%)
Выравнивание : Разделение по промежуткам
Продолжительность промежутка : 42 мс. (1,00 видеокадр)
Время предзагрузки промежутка : 500 мс.

piratbit.pw



Скачать Патруль времени через торрент https://pic1.kartinco.top/images/10/q2rew.jpg Скачать фильм Патруль времени через торрент бесплантно в хорошем качестве Описание: Будущее. Учёные создали машину времени, и с этим изобретением мир вышел на новый виток цивилизации. Благодаря изобретению ... 10 10 4
Торрент: Зарегистрирован [2015-05-13 18:21] · скачан: 25 раз
Статус: √ проверено
Размер: 2.02 GB
Как cкачать? Как скачать Патруль времени через торрент | UTorrent

% Раздел Тема Автор DL S | L
Фильмы [HD 720p, 1080p] (Хороший звук DUB, MVO) [ 5.76 GB ] Патруль времени / Predestination [2013 BDRip 720p] DUB MVO AVO potroks Скачать
2 | 0
Фильмы 2014 [DVDrip, WEB-DLRip, HDrip] [ 1.44 GB ] Патруль времени / Predestination [2014 HDRip многоголосый] Dean24 Скачать
1 | 0
Фильмы 2013 [DVDrip, WEB-DLRip, HDrip] [ 2.19 GB ] Патруль времени / Predestination [2014 BDRip-AVC] DUB potroks Скачать
1 | 0
Фильмы 2014 [DVDrip, WEB-DLRip, HDrip] [ 1.46 GB ] Патруль времени / Predestination [2014 HDRip] DUB Ворон Скачать
1 | 0
Фильмы [HD 720p, 1080p] (Хороший звук DUB, MVO) [ 8.04 GB ] Патруль времени / Predestination BDRip 1080p DEVI Скачать
1 | 0
Фильмы 2013 [DVDrip, WEB-DLRip, HDrip] [ 1.46 GB ] Патруль времени / Predestination [2014 BDRip-AVC] DUB potroks Скачать
1 | 0
Фильмы (Blu-ray, BD-Remux, HDDVD) [ 18.71 GB ] Патруль времени / Predestination [2014 BDRemux / MVO / BaibaKo Ворон Скачать
1 | 0

28-11-2019 20:33  

Отключить всю рекламу на сайте

    Дорогой пользователь! Огромная просьба, поблагодарите релизера, оцените раздачу и оставьте свои комментарий, если Вы скачали Патруль времени через торрент бесплатно! Внесите свою лепту в развитие PiratBit!
    Комментировать посты могут только пользователи прошедшие не сложную регистрацию
    Показать сообщения:    

    Патруль времени через торрент
    Скачать бесплатно Патруль времени
    Патруль времени скачать торрент
    Патруль времени смотреть онлайн
    Cкачать фильм Патруль времени бесплатно
    Патруль времени скачать торрент в хорошем качестве
    Патруль времени смотреть онлайн бесплатно в хорошем качестве


    Вы не можете начинать темы
    Вы не можете отвечать на сообщения
    Вы не можете редактировать свои сообщения
    Вы не можете удалять свои сообщения
    Вы не можете голосовать в опросах
    Вы не можете прикреплять файлы к сообщениям
    Вы можете скачивать файлы