1 сезон

1 сезон

iTunes

1

КиноПоиск HD

Кинопоиск HD

iTunes

13

1 сезон

RePack

30

Ultimate

ВАЖНО

ИГРА 18+

pack

RePack

MK11
pack

Легкие деньги

RePack

jed

RePack

fifa19

RePack

RDR2

RePack

NEED FOR SPEED™ PAYBACK

4 сезон

9 сезон

Бесстыжие 9 сезон

Все сериалы

все сериалы на PB.wtf

RePack

FAR CRY 5
  
Magnet ссылка

Форсаж 7 / Furious Seven (Джеймс Ван ) [2015, боевик, триллер, криминал, HDTVRip 1080p, Авторский (одноголосый) [Матвеев Алексей (Doctor Joker)] piratbit.pw

Форсаж 7 через торрент piratbit.pw

Размер: 5.45 GB | Добавлен: 5 лет 11 мес. назад | Торрент скачан:445 раз
Скачать  

10-05-2015 20:33 Форсаж 7 Скачать торрент  


Форсаж 7 / Furious Seven
«Месть не знает границ»

ИНФОРМАЦИЯ:
Год выпуска:2015
Страна: США
Жанр: боевик, триллер, криминал
Продолжительность: 02:17:13
Перевод: Авторский (одноголосый) [Матвеев Алексей (Doctor Joker)]
Примечание: Присутствуют вшитые неотключаемые корейские субтитры.
Субтитры: русские (Песни),
Режиссер: Джеймс Ван

В Ролях:


Вин Дизель (Dominic Toretto), Пол Уокер (Brian O'Conner), Джейсон Стэйтем (Deckard Shaw), Мишель Родригес (Letty), Дуэйн Джонсон (Hobbs), Тайриз Гибсон (Roman), Лудакрис (Tej), Натали Эммануэль (Ramsey), Джордана Брюстер (Mia), Курт Рассел (Mr. Nobody), Тони Джа (Kiet), Джимон Хонсу (Jakande)

Описание:
Они покорили Токио и Рио, Лос-Анджелес и Лондон. Но мир больше не играет по их правилам. Зной арабских пустынь, неприлично высокие небоскребы, миллионы долларов на колесах и очень, очень знаменитый злодей. Скорость не знает границ.

  • Мировая премьера:16 марта 2015

    ТЕХ.ДАННЫЕ:
    Качество: HDTVRip 1080p
    Формат: MKV
    Видео кодек: AVC
    Аудио кодек: AC3
    Видео: AVC, 1920x800 (2.40:1), 5346 kbps, 29,970 fps, 0,116 bpp
    Аудио: русский / AC3 / 2.0 / 48 kHz / 224 kbps / 16 bit ||



    Код:

    General
    Unique ID                                : 214659844442506362873035682120520243651 (0xA17DFB73396A0BF58C30B26782B519C3)
    Complete name                            : D:\Торенты\Раздачи\Furious.7.2015.HDTV (1080p).mkv
    Format                                   : Matroska
    Format version                           : Version 4 / Version 2
    File size                                : 5.45 GiB
    Duration                                 : 2h 17mn
    Overall bit rate                         : 5 684 Kbps
    Movie name                               : Релиз Переулка Переводмана
    Encoded date                             : UTC 2015-05-10 12:05:09
    Writing application                      : mkvmerge v6.0.0 ('Coming Up For Air') built on Jan 20 2013 09:52:00
    Writing library                          : libebml v1.3.0 + libmatroska v1.4.0
    Cover                                    : cover.jpg

    Video
    ID                                       : 1
    Format                                   : AVC
    Format/Info                              : Advanced Video Codec
    Format profile                           : High@L4.1
    Format settings, CABAC                   : Yes
    Format settings, ReFrames                : 4 frames
    Codec ID                                 : V_MPEG4/ISO/AVC
    Duration                                 : 2h 17mn
    Bit rate                                 : 5 347 Kbps
    Width                                    : 1 920 pixels
    Height                                   : 800 pixels
    Display aspect ratio                     : 2.40:1
    Frame rate mode                          : Variable
    Frame rate                               : 29.970 fps
    Color space                              : YUV
    Chroma subsampling                       : 4:2:0
    Bit depth                                : 8 bits
    Scan type                                : Progressive
    Bits/(Pixel*Frame)                       : 0.116
    Stream size                              : 5.12 GiB (94%)
    Title                                    : x264
    Writing library                          : x264 core 144 r2525M 40bb568
    Encoding settings                        : cabac=1 / ref=4 / deblock=1:0:0 / analyse=0x3:0x113 / me=umh / subme=7 / psy=1 / psy_rd=1.00:0.15 / mixed_ref=1 / me_range=16 / chroma_me=1 / trellis=1 / 8x8dct=1 / cqm=0 / deadzone=21,11 / fast_pskip=1 / chroma_qp_offset=-3 / threads=40 / lookahead_threads=8 / sliced_threads=0 / nr=0 / decimate=1 / interlaced=0 / bluray_compat=0 / constrained_intra=0 / bframes=3 / b_pyramid=2 / b_adapt=2 / b_bias=0 / direct=3 / weightb=1 / open_gop=0 / weightp=2 / keyint=250 / keyint_min=25 / scenecut=40 / intra_refresh=0 / rc_lookahead=50 / rc=crf / mbtree=1 / crf=18.0 / qcomp=0.60 / qpmin=0 / qpmax=69 / qpstep=4 / ip_ratio=1.40 / aq=1:1.00
    Language                                 : English
    Default                                  : Yes
    Forced                                   : No

    Audio
    ID                                       : 2
    Format                                   : AC-3
    Format/Info                              : Audio Coding 3
    Mode extension                           : CM (complete main)
    Codec ID                                 : A_AC3
    Duration                                 : 2h 17mn
    Bit rate mode                            : Constant
    Bit rate                                 : 224 Kbps
    Channel(s)                               : 2 channels
    Channel positions                        : Front: L R
    Sampling rate                            : 48.0 KHz
    Bit depth                                : 16 bits
    Compression mode                         : Lossy
    Delay relative to video                  : -46ms
    Stream size                              : 220 MiB (4%)
    Title                                    : AVO А.Матвеев
    Language                                 : Russian
    Default                                  : Yes
    Forced                                   : No

    Text
    ID                                       : 3
    Format                                   : UTF-8
    Codec ID                                 : S_TEXT/UTF8
    Codec ID/Info                            : UTF-8 Plain Text
    Title                                    : Песни
    Language                                 : Russian
    Default                                  : Yes
    Forced                                   : No

    Скриншоты:


    © Оформление by Ворон
    piratbit.pw



  • Скачать Форсаж 7 через торрент https://pic.kartinco.top/images/6/ordi9.jpg Скачать фильм Форсаж 7 через торрент бесплантно в хорошем качестве Описание: Они покорили Токио и Рио, Лос-Анджелес и Лондон. Но мир больше не играет по их правилам. Зной арабских пустынь, неприлично ... 9.6 10 18
    Info! Золотая раздача, скачанное не засчитывается.
    Торрент: Зарегистрирован [2015-05-10 20:33] · скачан: 445 раз
    Статус: √ проверено
    Размер: 5.45 GB
    Как cкачать? Как скачать Форсаж 7 через торрент | UTorrent

    % Раздел Тема Автор DL S | L
    Фильмы [HD 720p, 1080p] (Хороший звук DUB, MVO) [ 5.79 GB ] Форсаж 7 / Furious Seven [2015 BDRip 1080p HEVC ] [Extended Cut] Мичман37 Скачать
    1 | 0
    Ultra HD (UHD: 2K, 4K, 8K) — видео сверхвысокой чёткости [ 68.17 GB ] Форсаж 7 / Furious Seven [2015 UHD BDRemux 2160p] DUB + 4xAVO [Расширенная версия] sheker187 Скачать
    1 | 0
    Фильмы [HD 720p, 1080p] (Хороший звук DUB, MVO) [ 8.37 GB ] Форсаж 7 / Furious Seven [2015 BDRip 720p от _denis_100 / NNNB] DUB 4xAVO _denis_100 Скачать
    1 | 0
    Фильмы (Blu-ray, BD-Remux, HDDVD) [ 25.65 GB ] Форсаж 7 / Furious Seven [Theatrical Cut] [2015 BD Remux 1080p - ] -Lexx- Скачать
    1 | 0
    Фильмы (WEB-DL 720p, 1080p) [ 4.7 GB ] Форсаж 7 / Furious Seven [2015 WEB-DL 1080p Russia] Ворон Скачать
    1 | 0
    Фильмы (HD 720p, 1080p) (48-60 fps) [ 4.71 GB ] Форсаж 7 / Furious Seven [2015 BDRip 720p 60fps от еnvy / NNNB] DUB еnvy Скачать
    1 | 0
    Фильмы 2015 [DVDrip, WEB-DLRip, HDrip] [ 1.46 GB ] Форсаж 7 / Furious Seven [2015 BDRip-AVC] [Расширенная версия] DUB potroks Скачать
    1 | 0

    28-11-2019 20:33  

    Отключить всю рекламу на сайте

    10-05-2015 20:44 Форсаж 7 Скачать торрент  

    Афигенно постер сделал))) Красава yespiratbit.pw



    10-05-2015 20:55 Форсаж 7 Скачать торрент  

    _Fenixx_, да бери в релизы мне не жалко он не мой. могу дать ссылку на хороший сайт где этого добра хватает в лс если хочешьpiratbit.pw



    10-05-2015 21:01 Форсаж 7 Скачать торрент  

    Ворон писал(а):

    _Fenixx_, да бери в релизы мне не жалко он не мой. могу дать ссылку на хороший сайт где этого добра хватает в лс если хочешь

    Давай)))piratbit.pw



    10-05-2015 22:09 Форсаж 7 Скачать торрент  

    а есть 1920х1080 ?piratbit.pw





    Последний раз редактировалось: marrli (2015-05-10 22:23), всего редактировалось 1 раз

    10-05-2015 22:14 Форсаж 7 Скачать торрент  

    marrli писал(а):

    а есть 1920х1080 лицуха?

    тут - только звук с camripa!!!piratbit.pw



    10-05-2015 23:00 Форсаж 7 Скачать торрент  

    ладненько,подожду норм звук,спасибо за релиз piratbit.pw



    11-05-2015 04:22 Форсаж 7 Скачать торрент  

    Почти почти...piratbit.pw



    08-07-2015 06:51 Форсаж 7 Скачать торрент  

    скоро 5/1?piratbit.pw



      Дорогой пользователь! Огромная просьба, поблагодарите релизера, оцените раздачу и оставьте свои комментарий, если Вы скачали Форсаж 7 через торрент бесплатно! Внесите свою лепту в развитие PiratBit!
      Комментировать посты могут только пользователи прошедшие не сложную регистрацию
      Показать сообщения:    

      Форсаж 7 через торрент
      Скачать бесплатно Форсаж 7
      Форсаж 7 скачать торрент
      Форсаж 7 смотреть онлайн
      Cкачать фильм Форсаж 7 бесплатно
      Форсаж 7 скачать торрент в хорошем качестве
      Форсаж 7 смотреть онлайн бесплатно в хорошем качестве


      Вы не можете начинать темы
      Вы не можете отвечать на сообщения
      Вы не можете редактировать свои сообщения
      Вы не можете удалять свои сообщения
      Вы не можете голосовать в опросах
      Вы не можете прикреплять файлы к сообщениям
      Вы можете скачивать файлы