1 сезон

1 сезон

iTunes

1

КиноПоиск HD

Кинопоиск HD

iTunes

13

1 сезон

RePack

30

Ultimate

ВАЖНО

ИГРА 18+

pack

RePack

MK11
pack

Легкие деньги

RePack

jed

RePack

fifa19

RePack

RDR2

RePack

NEED FOR SPEED™ PAYBACK

4 сезон

9 сезон

Бесстыжие 9 сезон

Все сериалы

все сериалы на PB.wtf

RePack

FAR CRY 5
  
Magnet ссылка

Форсаж 7 / Furious 7 (Джеймс Ван) [2015 г., Боевик, триллер, криминал, HDTVRip, Авторский (DoctorJoker)] piratbit.pw

Форсаж 7 через торрент piratbit.pw

Размер: 1.47 GB | Добавлен: 5 лет 11 мес. назад | Торрент скачан:307 раз
Скачать  

10-05-2015 20:19 Форсаж 7 Скачать торрент  

Форсаж 7 / Furious 7Год выпуска: 2015
Страна: США
Студия: Dentsu, Fast 7 Productions, One Race Films, Original Film, Universal Pictures
Жанр: Боевик, триллер, криминал
Продолжительность: 02:17:13
Перевод - озвучивание:: Авторское одноголосое (Алексей Матвеев aka DoctorJoker)
Субтитры: Корейские [Не отключаемые]

Режиссер: Джеймс Ван

В ролях: Вин Дизель, Дуэйн Джонсон, Джейсон Стэйтем, Пол Уокер, Тайриз Гибсон, Лудакрис, Тони Джаа, Лукас Блэк, Мишель Родригес, Курт Расселл, Эльза Патаки, Джордана Брюстер, Натали Эммануэль, Галь Гадот, Джон Бразертон, Джимон Хонсу, Ноэль Гульеми, Али Фазал, Санг Кенг, Ронда Роуси, Гентри Уайт, Игги Азалия, Джон Ли Броди, Анна Колвелл, Виктор Эрнандез, Стив Култер, Роберт Пралго, Хорхе Феррагут, Бенжамин Бланкеншип

Описание: Они покорили Токио и Рио, Лос-Анджелес и Лондон. Но мир больше не играет по их правилам. Зной арабских пустынь, неприлично высокие небоскребы, миллионы долларов на колесах и очень, очень знаменитый злодей. Скорость не знает границ.



Качество: HDTVRip
Формат: AVI
Видео кодек: XviD
Аудио кодек: AC3
Видео: 720x304, 1238 kbps, 29,970 fps, 0.189 bpp
Аудио#1: Русский / 2 / 48 kHz / 224 kbps / 16 bit








Общее
Полное имя : D:\uTorrent\F0PCazh.7.2015.HDTVRip.avi
Формат : AVI
Формат/Информация : Audio Video Interleave
Размер файла : 1,47 Гбайт
Продолжительность : 2 ч. 17 м.
Общий поток : 1532 Кбит/сек
Программа кодирования : VirtualDubMod 1.5.10.2 (build 2540/release)
Библиотека кодирования : VirtualDubMod build 2540/release

Видео
Идентификатор : 0
Формат : MPEG-4 Visual
Профиль формата : Advanced Simple@L5
Параметр BVOP формата : 2
Параметр QPel формата : Нет
Параметр GMC формата : Без точки перехода
Параметр матрицы формата : Default (MPEG)
Идентификатор кодека : XVID
Идентификатор кодека/Подсказка : XviD
Продолжительность : 2 ч. 17 м.
Битрейт : 1238 Кбит/сек
Ширина : 720 пикселей
Высота : 304 пикселя
Соотношение сторон : 2,35:1
Частота кадров : 29,970 кадров/сек
Цветовое пространство : YUV
Субдискретизация насыщенности : 4:2:0
Битовая глубина : 8 бит
Тип развёртки : Прогрессивная
Метод сжатия : С потерями
Бит/(Пиксели*Кадры) : 0.189
Размер потока : 1,19 Гбайт (81%)
Библиотека кодирования : XviD 1.2.1 (UTC 2008-12-04)

Аудио
Идентификатор : 1
Формат : AC-3
Формат/Информация : Audio Coding 3
Расширение режима : CM (complete main)
Параметр Endianness формата : Big
Идентификатор кодека : 2000
Продолжительность : 2 ч. 17 м.
Вид битрейта : Постоянный
Битрейт : 224 Кбит/сек
Каналы : 2 канала
Расположение каналов : Front: L R
Частота : 48,0 КГц
Битовая глубина : 16 бит
Метод сжатия : С потерями
Размер потока : 220 Мбайт (15%)
Выравнивание : Разделение по промежуткам

piratbit.pw



Скачать Форсаж 7 через торрент http://s019.radikal.ru/i611/1505/ce/08e0b42405ed.jpg Скачать фильм Форсаж 7 через торрент бесплантно в хорошем качестве Описание: Они покорили Токио и Рио, Лос-Анджелес и Лондон. Но мир больше не играет по их правилам. Зной арабских пустынь, неприлично ... 9.9 10 18
Торрент: Зарегистрирован [2015-05-10 20:19] · скачан: 307 раз
Статус: √ проверено
Размер: 1.47 GB
Как cкачать? Как скачать Форсаж 7 через торрент | UTorrent

% Раздел Тема Автор DL S | L
Фильмы (HD 720p, 1080p) (48-60 fps) [ 4.2 GB ] Форсаж 7 / Furious 7 [2015 WEB-DLRip 720p / 60 FPS ] от R.G. HD-Films slaventi-69 Скачать
2 | 0
Фильмы [HD 720p, 1080p] (Хороший звук DUB, MVO) [ 5.79 GB ] Форсаж 7 / Furious Seven [2015 BDRip 1080p HEVC ] [Extended Cut] Мичман37 Скачать
2 | 0
Ultra HD (UHD: 2K, 4K, 8K) — видео сверхвысокой чёткости [ 68.17 GB ] Форсаж 7 / Furious Seven [2015 UHD BDRemux 2160p] DUB + 4xAVO [Расширенная версия] sheker187 Скачать
1 | 0
Фильмы [HD 720p, 1080p] (Хороший звук DUB, MVO) [ 8.37 GB ] Форсаж 7 / Furious Seven [2015 BDRip 720p от _denis_100 / NNNB] DUB 4xAVO _denis_100 Скачать
1 | 0
Фильмы (Blu-ray, BD-Remux, HDDVD) [ 25.65 GB ] Форсаж 7 / Furious Seven [Theatrical Cut] [2015 BD Remux 1080p - ] -Lexx- Скачать
1 | 0
Фильмы (WEB-DL 720p, 1080p) [ 4.7 GB ] Форсаж 7 / Furious Seven [2015 WEB-DL 1080p Russia] Ворон Скачать
1 | 0
Фильмы (HD 720p, 1080p) (48-60 fps) [ 4.71 GB ] Форсаж 7 / Furious Seven [2015 BDRip 720p 60fps от еnvy / NNNB] DUB еnvy Скачать
1 | 0

28-11-2019 20:33  

Отключить всю рекламу на сайте

10-05-2015 20:22 Форсаж 7 Скачать торрент  

Кому интересно могу выложить 720р в авторской озвучке!!! Отпишитесь в коментах!!!piratbit.pw



10-05-2015 20:30 Форсаж 7 Скачать торрент  

ща заценимpiratbit.pw



10-05-2015 20:33 Форсаж 7 Скачать торрент  

Вы представляете, Вин Дизель ( по моему он) сказал в твиттере , что будет 8 часть, не ну это уже не уважение даже, я не знаю кем надо быть чтобы делать 8 часть, они хорошо завершили 7piratbit.pw



10-05-2015 20:33 Форсаж 7 Скачать торрент  

а когда в 3D выйдет?piratbit.pw



10-05-2015 20:37 Форсаж 7 Скачать торрент  

M-Misha-M писал(а):

Вы представляете, Вин Дизель ( по моему он) сказал в твиттере , что будет 8 часть, не ну это уже не уважение даже, я не знаю кем надо быть чтобы делать 8 часть, они хорошо завершили 7

И в правду 8 часть выдет в 17))))piratbit.pw





Последний раз редактировалось: _Fenixx_ни мужик ни баба (2015-05-10 20:42), всего редактировалось 3 раз(а)

10-05-2015 20:38 Форсаж 7 Скачать торрент  

Давай в 720р, это же здорово!!!piratbit.pw



10-05-2015 20:45 Форсаж 7 Скачать торрент  

андрияш писал(а):

Давай в 720р, это же здорово!!!

Через 30 минут будет готово))))piratbit.pw



10-05-2015 20:52 Форсаж 7 Скачать торрент  

Спасибоpiratbit.pw



10-05-2015 21:06 Форсаж 7 Скачать торрент  

Вячеслав19797979 писал(а):

Спасибо

Не за что)))piratbit.pw



11-05-2015 11:33 Форсаж 7 Скачать торрент  

Вечная память Полу Уокеру!!!piratbit.pw



    Дорогой пользователь! Огромная просьба, поблагодарите релизера, оцените раздачу и оставьте свои комментарий, если Вы скачали Форсаж 7 через торрент бесплатно! Внесите свою лепту в развитие PiratBit!
    Комментировать посты могут только пользователи прошедшие не сложную регистрацию
    Показать сообщения:    

    Форсаж 7 через торрент
    Скачать бесплатно Форсаж 7
    Форсаж 7 скачать торрент
    Форсаж 7 смотреть онлайн
    Cкачать фильм Форсаж 7 бесплатно
    Форсаж 7 скачать торрент в хорошем качестве
    Форсаж 7 смотреть онлайн бесплатно в хорошем качестве


    Вы не можете начинать темы
    Вы не можете отвечать на сообщения
    Вы не можете редактировать свои сообщения
    Вы не можете удалять свои сообщения
    Вы не можете голосовать в опросах
    Вы не можете прикреплять файлы к сообщениям
    Вы можете скачивать файлы