Ссылка на приватное зеркало нашего сайта всего за 1$. Внимание количество ограничено!!!

2 сезон

iTunes

iTunes

1

iTunes

iTunes

iTunes

WEBRip

iTunes

30
pack

Вам бонус

ВАЖНО

!!Акция!!

Alien_RageХит недели

RePack

Horizon Zero Dawn

ИГРА 18+

pack

RePack

jed

!!Акция!!

Alien_Rage

RePack

fifa19

RePack

Assassins Creed: Odyssey

RePack

NEED FOR SPEED™ PAYBACK

4 сезон

9 сезон

Бесстыжие 9 сезон

Все сериалы

все сериалы на PB.wtf

RePack

FAR CRY 5
  

Бриллиантовая рука (Леонид Гайдай) [1968, комедия, криминал, приключения, BDRip 1080p] Original piratbit.pw

Бриллиантовая рука через торрент piratbit.pw

Размер: 12.03 GB | Добавлен: 5 лет 4 мес. назад | Торрент скачан:73 раза
Скачать  

09-05-2015 16:49 Бриллиантовая рука Скачать торрент  

Бриллиантовая рука
«Кинороман в 2-ух частях из жизни контрабандистов»



Год выпуска: 1968
Страна: СССР
Жанр: комедия, криминал, приключения, семейный
Продолжительность: 01:38:21
Перевод: Оригинал [Лицензия]
Субтитры: Нет



Режиссер:
  • Леонид Гайдай
В ролях:
  • Юрий Никулин, Андрей Миронов, Анатолий Папанов, Нина Гребешкова, Станислав Чекан, Владимир Гуляев, Нонна Мордюкова, Светлана Светличная, Роман Филиппов, Григорий Шпигель, Леонид Каневский, Игорь Ясулович
Описание: Кинороман из жизни контрабандистов с прологом и эпилогом. В южном городке орудует шайка «валютчиков», возглавляемая Шефом и его помощником Графом. Скромный советский служащий и примерный семьянин Семен Семеныч Горбунков отправляется в зарубежный круиз на теплоходе, на котором также плывет Граф, который должен забрать бриллианты в одном из восточных городов и провезти их в загипсованной руке. Но в силу недоразумения вместо жулика на условленном месте падает ничего не подозревающий Семен Семенович и драгоценный гипс накладывают ему. Вот тут-то все и начинается...



Качество: BDRip 1080p
Формат: MKV
Видео кодек: AVC
Аудио кодек: DTS
Видео: 1920x816 (2.35:1), 23,976 fps, 16000 kbps, 0,426 bpp
Аудио: русский, 48 kHz, DTS, 5.1 ch, 1510 kbps


Код:

General
Unique ID                                : 247342037778267289503894731419028740855 (0xBA1457FD22B53FB6B920D071A3B2DAF7)
Complete name                            : D:\Бриллиантовая рука (1968) BDRip 1080p.mkv
Format                                   : Matroska
Format version                           : Version 4 / Version 2
File size                                : 12.0 GiB
Duration                                 : 1h 38mn
Overall bit rate                         : 17.5 Mbps
Encoded date                             : UTC 2015-04-27 13:24:58
Writing application                      : mkvmerge v6.9.1 ('Blue Panther') 32bit built on Apr 18 2014 18:15:44
Writing library                          : libebml v1.3.0 + libmatroska v1.4.1
Attachment                               : Yes

Video
ID                                       : 1
Format                                   : AVC
Format/Info                              : Advanced Video Codec
Format profile                           : High@L4.1
Format settings, CABAC                   : Yes
Format settings, ReFrames                : 5 frames
Codec ID                                 : V_MPEG4/ISO/AVC
Duration                                 : 1h 38mn
Bit rate                                 : 16.0 Mbps
Width                                    : 1 920 pixels
Height                                   : 816 pixels
Display aspect ratio                     : 2.35:1
Frame rate                               : 23.976 fps
Color space                              : YUV
Chroma subsampling                       : 4:2:0
Bit depth                                : 8 bits
Scan type                                : Progressive
Bits/(Pixel*Frame)                       : 0.426
Stream size                              : 10.8 GiB (89%)
Writing library                          : x264 core 120 r2164 da19765
Encoding settings                        : cabac=1 / ref=5 / deblock=1:-3:-3 / analyse=0x3:0x113 / me=umh / subme=11 / psy=1 / psy_rd=1.00:0.15 / mixed_ref=1 / me_range=42 / chroma_me=1 / trellis=2 / 8x8dct=1 / cqm=0 / deadzone=21,11 / fast_pskip=1 / chroma_qp_offset=-3 / threads=6 / sliced_threads=0 / nr=0 / decimate=1 / interlaced=0 / bluray_compat=0 / constrained_intra=0 / bframes=7 / b_pyramid=2 / b_adapt=2 / b_bias=0 / direct=3 / weightb=1 / open_gop=0 / weightp=2 / keyint=240 / keyint_min=23 / scenecut=40 / intra_refresh=0 / rc=2pass / mbtree=0 / bitrate=16000 / ratetol=1.0 / qcomp=0.60 / qpmin=0 / qpmax=69 / qpstep=4 / cplxblur=20.0 / qblur=0.5 / ip_ratio=1.40 / pb_ratio=1.30 / aq=1:0.80
Language                                 : Russian
Default                                  : Yes
Forced                                   : No

Audio
ID                                       : 2
Format                                   : DTS
Format/Info                              : Digital Theater Systems
Codec ID                                 : A_DTS
Duration                                 : 1h 38mn
Bit rate mode                            : Constant
Bit rate                                 : 1 510 Kbps
Channel(s)                               : 6 channels
Channel positions                        : Front: L C R, Side: L R, LFE
Sampling rate                            : 48.0 KHz
Bit depth                                : 16 bits
Compression mode                         : Lossy
Delay relative to video                  : 11ms
Stream size                              : 1.04 GiB (9%)
Title                                    : Оригинал, Blu-ray RUS
Language                                 : Russian
Default                                  : Yes
Forced                                   : No

Menu
00:00:00.000                             : en:Chapter 01
00:04:43.825                             : en:Chapter 02
00:08:27.548                             : en:Chapter 03
00:11:36.987                             : en:Chapter 04
00:15:58.332                             : en:Chapter 05
00:22:14.916                             : en:Chapter 06
00:28:26.705                             : en:Chapter 07
00:34:49.545                             : en:Chapter 08
00:39:05.343                             : en:Chapter 09
00:43:30.566                             : en:Chapter 10
00:49:45.565                             : en:Chapter 11
00:54:14.334                             : en:Chapter 12
00:58:53.571                             : en:Chapter 13
01:04:20.815                             : en:Chapter 14
01:10:20.341                             : en:Chapter 15
01:14:34.678                             : en:Chapter 16
01:22:27.025                             : en:Chapter 17
01:30:11.447                             : en:Chapter 18
01:33:01.450                             : en:Chapter 19
01:36:52.681                             : en:Chapter 20
01:38:20.019                             : en:Chapter 21

Премьера (мир): 28 апреля 1969
Релиз на Blu-Ray: 20 декабря 2011,
«Парадиз Медиа»,
...

Релиз на DVD: 29 апреля 2009,
«Азимут»,
...
Данный релиз идеален для пополнения домашней коллекции BDRip'ов.
В релиз вшита русская обложка размером 520х600 пикселей (аналогичные размеры у всех обложек для данной категории), что позволяет предать визуальную красоту Ваших фильмов.
Так же релиз максимально наполнен аудио дорожками в высоком качестве и субтитрами в формате srt.
Раздача обновляемая! При выходе других авторских переводов, релиз будет обновлен!
Итак, посмотрим на примере, как будет выглядеть Ваша коллекция: скриншот  
К сожалению, далеко не все, встроенные в телевизор медиаплееры, умеют воспроизводить звук в формате "DTS".
Выходов несколько: либо скачать другую раздачу, в которой звук будет в формате "АС3", либо перекодировать из "DTS" в "АС3".
Так же можно воспроизвести фильм с Вашего персонального компьютера/ноутбука, подключенного к телевизору через провод HDMI.
Фильмы выпускаются для кинотеатров, с пропорциями 2.35:1. И в таком же виде обычно издаются на дисках.
Монитор 16:9 имеет пропорции 1.77:1 поэтому более широкоформатное кино будет отображаться с черными полосами.
Надо это просто принять, ведь так снимают многие кинокартины.
Но некоторые фильмы могут быть и на весь экран. Особенно сериалы.
В рипах обычно обрезают черные полосы, и получают разрешение 1920х800, где приблизительно 280 пикселей занимали, повторюсь, черные полосы на экране.
Пример кадра "на весь экран": скриншот  
Пример кадра "не на весь экран": скриншот  
piratbit.pw



Скачать Бриллиантовая рука через торрент http://i71.fastpic.ru/big/2015/0516/ce/b74496b8cc76d8d6ee966a84442eaace.png Скачать фильм Бриллиантовая рука через торрент бесплантно в хорошем качестве Описание: Кинороман из жизни контрабандистов с прологом и эпилогом. В южном городке орудует шайка «валютчиков», возглавляемая Шефом и его ... 10 10 17
Info! Золотая раздача, скачанное не засчитывается.
Торрент: Зарегистрирован [2015-05-09 16:53] · скачан: 73 раз
Статус: √ проверено
Размер: 12.03 GB
Как cкачать? Как скачать Бриллиантовая рука через торрент | qTorrent

28-11-2019 20:33  

Отключить всю рекламу на сайте

17-07-2020 11:18 Бриллиантовая рука Скачать торрент  

Встаньте на раздачу, пожалуйстаpiratbit.pw



    Дорогой пользователь! Огромная просьба, поблагодарите релизера, оцените раздачу и оставьте свои комментарий, если Вы скачали Бриллиантовая рука через торрент бесплатно! Внесите свою лепту в развитие PiratBit!
    Комментировать посты могут только пользователи прошедшие не сложную регистрацию
    Показать сообщения:    

    Бриллиантовая рука через торрент
    Скачать бесплатно Бриллиантовая рука
    Бриллиантовая рука скачать торрент
    Бриллиантовая рука смотреть онлайн
    Cкачать фильм Бриллиантовая рука бесплатно
    Бриллиантовая рука скачать торрент в хорошем качестве
    Бриллиантовая рука смотреть онлайн бесплатно в хорошем качестве


    Вы не можете начинать темы
    Вы не можете отвечать на сообщения
    Вы не можете редактировать свои сообщения
    Вы не можете удалять свои сообщения
    Вы не можете голосовать в опросах
    Вы не можете прикреплять файлы к сообщениям
    Вы можете скачивать файлы