1 сезон

3 сезон

iTunes

1

iTunes

DUB Netflix

iTunes

13

1 сезон

RePack

30

Deluxe

pack

Легкие деньги

ВАЖНО

ИГРА 18+

pack

RePack

MK11

RePack

jed

RePack

fifa19

RePack

RDR2

RePack

NEED FOR SPEED™ PAYBACK

4 сезон

9 сезон

Бесстыжие 9 сезон

Все сериалы

все сериалы на PB.wtf

RePack

FAR CRY 5

Anonymous, добрый вечер, мы не успеваем до 1 числа собрать деньги на оплату серверов, помогите нам пожалуйста в это трудное время. В качестве благодарности мы отключим Вам всю рекламу на сайте (укажите свой ник в строку Ваше имя)!

×
  
Magnet ссылка

Жнец / Reaper (Вэнь-Хань Ших) [2014 г., ужасы, фантастика, триллер, криминал, DVDRip] piratbit.pw

Жнец через торрент piratbit.pw

Размер: 1.37 GB | Добавлен: 6 лет 1 мес. назад | Торрент скачан:360 раз
Скачать  

06-05-2015 16:17 Жнец Скачать торрент  

Жнец / Reaper
Год выпуска: 2014
Страна: США
Жанр: ужасы, фантастика, триллер, криминал
Продолжительность: 90 мин. / 01:30
Перевод: Любительский (многоголосый закадровый) [Колобок & Victory-Films & XDub]

Режиссер: Вэнь-Хань Ших
Продюссер: Frederick Cipoletti, Омар Джурди, Наджи Джурди
Сценарий: Марк Джеймс, Омар Джурди

Премьера в мире: 6 октября 2014

IMDB 5.30 (344)


В ролях: Дэнни Трехо, Винни Джонс, Джейк Бьюзи, Шейла Бисли, Омар Джурди, Кристофер Джадж, Джастин Генри, Уильям Шокли, Гэбриел Джаррет, Майк Майклс

Описание: Натали — молодая и красивая девушка, путешествующая автостопом по стране и пытающаяся заработать больной матери на операцию. В своих путешествиях она сталкивается как с подонками, так и с хорошими людьми. В то время, как Натали пытается добраться до дома, в окрестностях возобновил свою деятельность психопат, чудом избежавший смертной казни на электрическом стуле. Судьба сводит Натали, ее случайных попутчиков и убийцу в одном отеле, название которому «Последнее пристанище».

Качество: DVDRip
Формат: AVI
Видео кодек: XviD
Аудио кодек: AC3
Видео: 1846 Кбит/сек, 720*400 (16:9), MPEG-4 Visual (XviD), 25,000 кадров/сек.
Аудио#1: 448Кбит/сек , 48,0 КГЦ, 16 бит, 6 каналов, AC-3
скриншот   скриншот   скриншот   скриншот   скриншот   скриншот  

Общее
Полное имя : C:\OGO2\Downloads\Жнец.2014.L.DVDRip.1400MB.avi
Формат : AVI
Формат/Информация : Audio Video Interleave
Размер файла : 1,37 Гбайт
Продолжительность : 1 ч. 24 м.
Общий поток : 2303 Кбит/сек
Программа кодирования : VirtualDubMod 1.5.10.3 | www.virtualdub-fr.org || (build 2550/release)
Библиотека кодирования : VirtualDubMod build 2550/release

Видео
Идентификатор : 0
Формат : MPEG-4 Visual
Профиль формата : Advanced Simple@L5
Параметр BVOP формата : 1
Параметр QPel формата : Нет
Параметр GMC формата : Без точки перехода
Параметр матрицы формата : Выборочная
Идентификатор кодека : XVID
Идентификатор кодека/Подсказка : XviD
Продолжительность : 1 ч. 24 м.
Битрейт : 1846 Кбит/сек
Ширина : 720 пикселей
Высота : 400 пикселей
Соотношение сторон : 16:9
Частота кадров : 25,000 кадров/сек
Цветовое пространство : YUV
Субдискретизация насыщенности : 4:2:0
Битовая глубина : 8 бит
Тип развёртки : Прогрессивная
Метод сжатия : С потерями
Бит/(Пиксели*Кадры) : 0.256
Размер потока : 1,10 Гбайт (80%)
Библиотека кодирования : XviD 73

Аудио
Идентификатор : 1
Формат : AC-3
Формат/Информация : Audio Coding 3
Расширение режима : CM (complete main)
Параметр Endianness формата : Big
Идентификатор кодека : 2000
Продолжительность : 1 ч. 24 м.
Вид битрейта : Постоянный
Битрейт : 448 Кбит/сек
Каналы : 6 каналов
Расположение каналов : Front: L C R, Side: L R, LFE
Частота : 48,0 КГц
Битовая глубина : 16 бит
Метод сжатия : С потерями
Размер потока : 272 Мбайт (19%)
Выравнивание : Разделение по промежуткам
Продолжительность промежутка : 40 мс. (1,00 видеокадр)
Время предзагрузки промежутка : 500 мс.


Жнец скачать торрент


piratbit.pw



Скачать Жнец через торрент https://pic.kartinco.top/images/11/x81xx.jpg Скачать фильм Жнец через торрент бесплантно в хорошем качестве Описание: Натали — молодая и красивая девушка, путешествующая автостопом по стране и пытающаяся заработать больной матери на операцию. В ... 9.1 10 20
Торрент: Зарегистрирован [2015-05-06 16:17] · скачан: 360 раз
Статус: T временная
Размер: 1.37 GB
Как cкачать? Как скачать Жнец через торрент | UTorrent

% Раздел Тема Автор DL S | L
Фильмы 2014 (Звук TS, Cam, VO, DVO) [ 1.37 GB ] Жнец / Reaper [2014 DVDRip] MVO [Колобок & Victory-Films & XDub] GEKADOL Скачать
1 | 0


Последний раз редактировалось: olegus16 (2015-05-07 11:57), всего редактировалось 1 раз

28-11-2019 20:33  

Отключить всю рекламу на сайте

06-05-2015 17:04 Жнец Скачать торрент  

то чувство когда весь бюджет ушел на обложкуpiratbit.pw



06-05-2015 17:18 Жнец Скачать торрент  

Трехо,Джонс...
все понятно)piratbit.pw



06-05-2015 18:26 Жнец Скачать торрент  

АццкийПадонак писал(а):

Трехо,Джонс...
все понятно)

Я так понимаю,нет смысла просматривать эту работу?))Сарказм-тонкая штука)))piratbit.pw



06-05-2015 21:11 Жнец Скачать торрент  

Неинтересный фильм!Отстой!piratbit.pw



07-05-2015 08:02 Жнец Скачать торрент  

Перевод укажи!piratbit.pw



07-05-2015 11:17 Жнец Скачать торрент  

Фильм чушь и перевод тожеpiratbit.pw



08-05-2015 09:13 Жнец Скачать торрент  

АццкийПадонак писал(а):

Трехо,Джонс...
все понятно)

Я так понимаю,нет смысла просматривать эту работу?))Сарказм-тонкая штука)))

Дэнни Трехо, Винни Джонс снимаются исключительно в "амне"piratbit.pw



    Дорогой пользователь! Огромная просьба, поблагодарите релизера, оцените раздачу и оставьте свои комментарий, если Вы скачали Жнец через торрент бесплатно! Внесите свою лепту в развитие PiratBit!
    Комментировать посты могут только пользователи прошедшие не сложную регистрацию
    Показать сообщения:    

    Жнец через торрент
    Скачать бесплатно Жнец
    Жнец скачать торрент
    Жнец смотреть онлайн
    Cкачать фильм Жнец бесплатно
    Жнец скачать торрент в хорошем качестве
    Жнец смотреть онлайн бесплатно в хорошем качестве


    Вы не можете начинать темы
    Вы не можете отвечать на сообщения
    Вы не можете редактировать свои сообщения
    Вы не можете удалять свои сообщения
    Вы не можете голосовать в опросах
    Вы не можете прикреплять файлы к сообщениям
    Вы можете скачивать файлы