Ссылка на приватное зеркало нашего сайта всего за 1$. Внимание количество ограничено!!!

2 сезон

iTunes

1 сезон

1

iTunes

iTunes

iTunes

1 сезон

RePack

30

ИГРА 18+

pack

ВАЖНО

!!Акция!!

Alien_RageХит недели

RePack

MK11
pack

Забери бонус

RePack

jed

!!Акция!!

Alien_Rage

RePack

fifa19

RePack

Assassins Creed: Odyssey

RePack

NEED FOR SPEED™ PAYBACK

4 сезон

9 сезон

Бесстыжие 9 сезон

Все сериалы

все сериалы на PB.wtf

RePack

FAR CRY 5
  

Раскоп (Сергей Дахин) [2014 г., драма, комедия, WEB-DLRip] piratbit.pw

Раскоп через торрент piratbit.pw

Размер: 705 MB | Добавлен: 5 лет 5 мес. назад | Торрент скачан:280 раз
Скачать  

05-05-2015 17:57 Раскоп Скачать торрент  

Раскоп
Год выпуска: 2014
Страна: Россия
Жанр: драма, комедия
Продолжительность: 01:23:21

Режиссер: Сергей Дахин



В ролях: Кирилл Пирогов, Олег Нирян, Екатерина Федулова, Никита Тюнин, Владас Багдонас, Александр Петров, Ксения Богданова, Наталия Денисенко, Александр Безсмертный

Описание: Писатель-неудачник Паша и двое его школьных друзей — алкоголик-бизнесмен Самородов и примерный семьянин Скляренко, заскучав от повседневной суеты, жён и рутины, решают отправиться в отпуск навстречу приключениям. Волею судьбы сорокалетние мальчишки оказываются на археологическом раскопе. Получив возможность столкнуться со своим прошлым, Паша, освободившись от иллюзий, комплексов и страхов, наконец, обретает внутреннюю гармонию...

Качество: WEB-DLRip
Формат: AVI
Видео кодек: XviD
Аудио кодек: MP3
Видео: 640x272 (2.35:1), 24.000 fps, XviD build 50 ~1044 kbps avg, 0.25 bit/pixel
Аудио: 48 kHz, MPEG Layer 3, 2 ch, ~128.00 kbps avg
скриншот   скриншот   скриншот   скриншот   скриншот   скриншот  

Общее
Полное имя : F:\кино\Раскоп.2014.WEB-DLRip.700MB.avi
Формат : AVI
Формат/Информация : Audio Video Interleave
Размер файла : 705 Мбайт
Продолжительность : 1 ч. 23 м.
Общий поток : 1182 Кбит/сек
Программа кодирования : VirtualDubMod 1.5.10.3 | www.virtualdub-fr.org || (build 2550/release)
Библиотека кодирования : VirtualDubMod build 2550/release

Видео
Идентификатор : 0
Формат : MPEG-4 Visual
Профиль формата : Advanced Simple@L5
Параметр BVOP формата : 2
Параметр QPel формата : Нет
Параметр GMC формата : Без точки перехода
Параметр матрицы формата : Default (H.263)
Идентификатор кодека : XVID
Идентификатор кодека/Подсказка : XviD
Продолжительность : 1 ч. 23 м.
Битрейт : 1045 Кбит/сек
Ширина : 640 пикселей
Высота : 272 пикселя
Соотношение сторон : 2,35:1
Частота кадров : 24,000 кадра/сек
Цветовое пространство : YUV
Субдискретизация насыщенности : 4:2:0
Битовая глубина : 8 бит
Тип развёртки : Прогрессивная
Метод сжатия : С потерями
Бит/(Пиксели*Кадры) : 0.250
Размер потока : 623 Мбайт (88%)
Библиотека кодирования : XviD 1.2.1 (UTC 2008-12-04)

Аудио
Идентификатор : 1
Формат : MPEG Audio
Версия формата : Version 1
Профиль формата : Layer 3
Режим : Joint stereo
Идентификатор кодека : 55
Идентификатор кодека/Подсказка : MP3
Продолжительность : 1 ч. 23 м.
Вид битрейта : Постоянный
Битрейт : 128 Кбит/сек
Каналы : 2 канала
Частота : 48,0 КГц
Метод сжатия : С потерями
Размер потока : 76,3 Мбайт (11%)
Выравнивание : Соединение по промежуткам
Продолжительность промежутка : 42 мс. (1,00 видеокадр)
Время предзагрузки промежутка : 504 мс.
Библиотека кодирования : LAME3.99r
Настройки программы : -m j -V 4 -q 2 -lowpass 17 -b 128

piratbit.pw



Скачать Раскоп через торрент http://pic1.kartinco.top/images/10/4fsqf.jpg Скачать фильм Раскоп через торрент бесплантно в хорошем качестве Описание: Писатель-неудачник Паша и двое его школьных друзей — алкоголик-бизнесмен Самородов и примерный семьянин Скляренко, заскучав от ... 10 10 4
Торрент: Зарегистрирован [2015-05-05 17:57] · скачан: 280 раз
Статус: √ проверено
Размер: 705 MB
Как cкачать? Как скачать Раскоп через торрент | qTorrent

% Раздел Тема Автор DL S | L
Зарубежные сериалы [ 6.09 GB ] Раскопка / Раскопки / Dig / Сезон: 1 / Серии: 1-10 из 10 [2015 WEB-DLRip-AVC] MVO [NewStudio] bober100 Скачать
1 | 0
T Фильмы 2018 [DVDrip, WEB-DLRip, HDrip] (DUB, MVO) [ 1.46 GB ] Раскопки / The Dig [2018 WEB-DLRip] [MVO] killermax2013 Скачать
1 | 0
Документальные фильмы и телепередачи [ 263 MB ] Азов. Раскопки Тура Хейердала / Сага о том как Тур Хейердал искал в Азове следы бога Одина [2001 Док. Культура TVRip] кэп Скачать
1 | 0
Зарубежные сериалы [ 14.79 GB ] Раскопки / Dig / Сезон: 1 / Серии 1-10 из 10 [2015 HDTVRip 720р MVO] [NewStudio] GEKADOL Скачать
1 | 0
Наши новые фильмы 2014 [ 1.37 GB ] Раскоп [2014 WEB-DLRip] Ворон Скачать
1 | 0
Зарубежные сериалы [ 5.52 GB ] Раскопки / Dig / Сезон: 1 / Серии 1-10 из 10 [2015 HDTVRip MVO] [NewStudio] GEKADOL Скачать
1 | 0
Зарубежные сериалы [ 751 MB ] Раскопки / Раскопка / Dig / Сезон: 1 / Серии: 1 из 10 [2015 WEB-DLRip] MVO + Original Assasinca Скачать
1 | 0

28-11-2019 20:33  

Отключить всю рекламу на сайте

    Дорогой пользователь! Огромная просьба, поблагодарите релизера, оцените раздачу и оставьте свои комментарий, если Вы скачали Раскоп через торрент бесплатно! Внесите свою лепту в развитие PiratBit!
    Комментировать посты могут только пользователи прошедшие не сложную регистрацию
    Показать сообщения:    

    Раскоп через торрент
    Скачать бесплатно Раскоп
    Раскоп скачать торрент
    Раскоп смотреть онлайн
    Cкачать фильм Раскоп бесплатно
    Раскоп скачать торрент в хорошем качестве
    Раскоп смотреть онлайн бесплатно в хорошем качестве


    Вы не можете начинать темы
    Вы не можете отвечать на сообщения
    Вы не можете редактировать свои сообщения
    Вы не можете удалять свои сообщения
    Вы не можете голосовать в опросах
    Вы не можете прикреплять файлы к сообщениям
    Вы можете скачивать файлы