Marvel's Avengers Deluxe Edition (супер цена) 159р. Внимание количество ограничено!!!

2 сезон

iTunes

iTunes

1

iTunes

iTunes

iTunes

WEBRip

iTunes

30
pack

Новость дня

ВАЖНО

!!Акция!!

Alien_RageХит недели

RePack

Horizon Zero Dawn

ИГРА 18+

pack

RePack

jed

!!Акция!!

Alien_Rage

RePack

fifa19

RePack

Assassins Creed: Odyssey

RePack

NEED FOR SPEED™ PAYBACK

4 сезон

9 сезон

Бесстыжие 9 сезон

Все сериалы

все сериалы на PB.wtf

RePack

FAR CRY 5
  

Битва за Севастополь / Незламна (Сергей Мокрицкий ) [01-04 из 04] [2015, военный, драма, мелодрама, WEBRip 720p / Расширенная Телеверсия] piratbit.pw

Битва за Севастополь через торрент piratbit.pw

Раздают: 1 [ 0 KB/s ]
Размер: 5.99 GB | Добавлен: 5 лет 4 мес. назад | Торрент скачан:1656 раз
Скачать  

04-05-2015 12:31 Битва за Севастополь Скачать торрент  


Битва за Севастополь / Незламна


ИНФОРМАЦИЯ:
Год выпуска:2015
Страна: Россия, Украина
Жанр: военный, драма, мелодрама, боевик
Продолжительность: ~ 00:47:00 серия
Перевод: Не требуется
Режиссер: Сергей Мокрицкий

В Ролях:


Юлия Пересильд (Людмила Павличенко), Евгений Цыганов (Леонид Киценко), Олег Васильков (снайпер Макаров), Никита Тарасов (Борис Чопак), Джоан Блэкэм (Элеонора Рузвельт), Полина Пахомова (Маша), Владимир Лилицкий (Гриша), Анатолий Кот (Николай), Нателла Абелева-Таганова (Соня), Валерий Гришко (генерал Петров), Сергей Барковский (генерал Октябрьский), Виталий Линецкий (майор КМБ)

Описание:
Любовь под нескончаемым огнем противника, дружба с Элеонорой Рузвельт, выступление на конференции, повлиявшее на исход Второй мировой войны, желание жить и страх потерять любимого человека - справится ли со всем этим хрупкая женщина?
Это реальная история Людмилы Павличенко - легендарной женщины-снайпера. Солдаты шли в бой с ее именем на устах, а враги устроили на нее охоту. На поле битвы она видела смерть и страдания, но самым серьезным испытанием для нее стала любовь, которую у нее могла забрать война...

  • Мировая премьера:2 апреля 2015

    ТЕХ.ДАННЫЕ:
    Качество: WEBRip 720p
    Формат: MKV
    Видео кодек: AVC
    Аудио кодек: AC3
    Видео: AVC, 1280x544 (2.35:1), 4222 kbps, 25 fps, 0,243 bpp
    Аудио: русский / AC3 / 2.0 / 48 kHz / 192 kbps / 16 bit ||



    Код:

    General
    Unique ID                                : 175706993572485752045991014270381582709 (0x842FEFA00D53A92DA4D5CA7B7903E975)
    Complete name                            : D:\Торенты\Кино\Bitva.za.Sevastopol.2015.Serial.WEBRip.(720p)\Bitva.za.Sevastopol.2015.4.serija.iz.4.WEBRip.(720p).mkv
    Format                                   : Matroska
    Format version                           : Version 4 / Version 2
    File size                                : 1.50 GiB
    Duration                                 : 48mn 36s
    Overall bit rate                         : 4 416 Kbps
    Encoded date                             : UTC 2015-05-03 20:21:06
    Writing application                      : mkvmerge v6.5.0 ('Isn't she lovely') built on Oct 20 2013 12:50:05
    Writing library                          : libebml v1.3.0 + libmatroska v1.4.1

    Video
    ID                                       : 1
    Format                                   : AVC
    Format/Info                              : Advanced Video Codec
    Format profile                           : High@L3.1
    Format settings, CABAC                   : Yes
    Format settings, ReFrames                : 6 frames
    Codec ID                                 : V_MPEG4/ISO/AVC
    Duration                                 : 48mn 36s
    Bit rate                                 : 4 222 Kbps
    Width                                    : 1 280 pixels
    Height                                   : 544 pixels
    Display aspect ratio                     : 2.35:1
    Frame rate                               : 25.000 fps
    Color space                              : YUV
    Chroma subsampling                       : 4:2:0
    Bit depth                                : 8 bits
    Scan type                                : Progressive
    Bits/(Pixel*Frame)                       : 0.243
    Stream size                              : 1.40 GiB (94%)
    Writing library                          : x264 core 146 r2538 121396c
    Encoding settings                        : cabac=1 / ref=6 / deblock=1:0:0 / analyse=0x3:0x113 / me=umh / subme=7 / psy=1 / psy_rd=1.00:0.15 / mixed_ref=1 / me_range=16 / chroma_me=1 / trellis=1 / 8x8dct=1 / cqm=0 / deadzone=21,11 / fast_pskip=1 / chroma_qp_offset=-3 / threads=12 / lookahead_threads=2 / sliced_threads=0 / nr=0 / decimate=1 / interlaced=0 / bluray_compat=0 / constrained_intra=0 / bframes=3 / b_pyramid=2 / b_adapt=1 / b_bias=0 / direct=1 / weightb=1 / open_gop=0 / weightp=2 / keyint=250 / keyint_min=25 / scenecut=40 / intra_refresh=0 / rc_lookahead=40 / rc=2pass / mbtree=1 / bitrate=4222 / ratetol=1.0 / qcomp=0.60 / qpmin=0 / qpmax=69 / qpstep=4 / cplxblur=20.0 / qblur=0.5 / vbv_maxrate=17500 / vbv_bufsize=17500 / nal_hrd=none / filler=0 / ip_ratio=1.40 / aq=1:1.00
    Default                                  : Yes
    Forced                                   : No

    Audio
    ID                                       : 2
    Format                                   : AC-3
    Format/Info                              : Audio Coding 3
    Mode extension                           : CM (complete main)
    Codec ID                                 : A_AC3
    Duration                                 : 48mn 36s
    Bit rate mode                            : Constant
    Bit rate                                 : 192 Kbps
    Channel(s)                               : 2 channels
    Channel positions                        : Front: L R
    Sampling rate                            : 48.0 KHz
    Bit depth                                : 16 bits
    Compression mode                         : Lossy
    Stream size                              : 66.7 MiB (4%)
    Language                                 : Russian
    Default                                  : Yes
    Forced                                   : No

    Скриншоты:


    © Оформление by Ворон

    На 1 час 20 минут больше киноверсии piratbit.pw



  • Скачать Битва за Севастополь через торрент http://pic.kartinco.top/images/6/ordi9.jpg Скачать фильм Битва за Севастополь через торрент бесплантно в хорошем качестве Описание: Любовь под нескончаемым огнем противника, дружба с Элеонорой Рузвельт, выступление на конференции, повлиявшее на исход Второй ... 9.5 10 54
    Info! Золотая раздача, скачанное не засчитывается.
    Торрент: Зарегистрирован [2015-05-04 12:31] · скачан: 1 656 раз
    Статус: T временная
    Размер: 5.99 GB
    Как cкачать? Как скачать Битва за Севастополь через торрент | qTorrent

    % Раздел Тема Автор DL S | L
    Наши новые фильмы 2015 [ 2.05 GB ] Битва за Севастополь \ Незламна [2015 Россия Украина военный DVDRip] Оригинал [лицензия] White Smoke Скачать
    1 | 0

    28-11-2019 20:33  

    Отключить всю рекламу на сайте

    04-05-2015 13:15 Битва за Севастополь Скачать торрент  

    Вот как чувствовал и тянул с просмотром, теперь за ценим полную версию. Многие писали что заметно урезали киноверсию...piratbit.pw



    04-05-2015 13:32 Битва за Севастополь Скачать торрент  

    это история про снайпера, а не битва за Севастополь.piratbit.pw



    04-05-2015 13:39 Битва за Севастополь Скачать торрент  

    смотрел фильм - время за зря
    ожидал что-то более интересное и захватывающееpiratbit.pw



    04-05-2015 19:00 Битва за Севастополь Скачать торрент  

    Очередное кино "непоймиочем". Антураж военный, а про саму войну как-то мимоходом.piratbit.pw



    07-05-2015 00:01 Битва за Севастополь Скачать торрент  

    Спасибо Ворон. С наступающим!
    Всех с наступающим! Мира, любви, добра.piratbit.pw



    07-05-2015 11:51 Битва за Севастополь Скачать торрент  

    Спасибо Огромное.
    Отличный фильм при просмотре вызывает бурю положительных эмоций.piratbit.pw



    26-06-2015 21:02 Битва за Севастополь Скачать торрент  

    Спасибо, ща заценим (Слава Богу, что режиссёр не Федя)piratbit.pw



      Дорогой пользователь! Огромная просьба, поблагодарите релизера, оцените раздачу и оставьте свои комментарий, если Вы скачали Битва за Севастополь через торрент бесплатно! Внесите свою лепту в развитие PiratBit!
      Комментировать посты могут только пользователи прошедшие не сложную регистрацию
      Показать сообщения:    

      Битва за Севастополь через торрент
      Скачать бесплатно Битва за Севастополь
      Битва за Севастополь скачать торрент
      Битва за Севастополь смотреть онлайн
      Cкачать фильм Битва за Севастополь бесплатно
      Битва за Севастополь скачать торрент в хорошем качестве
      Битва за Севастополь смотреть онлайн бесплатно в хорошем качестве


      Вы не можете начинать темы
      Вы не можете отвечать на сообщения
      Вы не можете редактировать свои сообщения
      Вы не можете удалять свои сообщения
      Вы не можете голосовать в опросах
      Вы не можете прикреплять файлы к сообщениям
      Вы можете скачивать файлы