1 сезон

1 сезон

iTunes

1

КиноПоиск HD

Кинопоиск HD

iTunes

13

1 сезон

RePack

30

Ultimate

ВАЖНО

ИГРА 18+

pack

RePack

MK11
pack

Легкие деньги

RePack

jed

RePack

fifa19

RePack

RDR2

RePack

NEED FOR SPEED™ PAYBACK

4 сезон

9 сезон

Бесстыжие 9 сезон

Все сериалы

все сериалы на PB.wtf

RePack

FAR CRY 5
  
Magnet ссылка

Снайпер / American Sniper (Клинт Иствуд ) [2014, боевик, драма, военный, BDRip 1080p, Авторский - Вячеслав Котов] piratbit.pw

Снайпер через торрент piratbit.pw

Размер: 12.61 GB | Добавлен: 5 лет 11 мес. назад | Торрент скачан:45 раз
Скачать  

04-05-2015 03:43 Снайпер Скачать торрент  


Снайпер / American Sniper
«Под прицелом у смерти»

ИНФОРМАЦИЯ:
Год выпуска:2014
Страна: США
Жанр: боевик, драма, военный, биография
Продолжительность: 02:12:39
Перевод: Авторский (одноголосый)(Вячеслав Котов)
Субтитры: английские (SDH),
Режиссер: Клинт Иствуд

В Ролях:


Брэдли Купер (Chris Kyle), Сиенна Миллер (Taya), Кайл Галлнер (Goat-Winston), Коул Конис (Young Chris Kyle), Бен Рид (Wayne Kyle), Элиз Робертсон (Debbie Kyle), Люк Саншайн (Young Jeff Kyle), Трой Винсент (Pastor), Брэндон Сальгадо (Bully), Кейр О’Доннелл (Jeff Kyle), Марне Паттерсон (Sarah), Джейсон Холл (Cowboy)

Описание:
Экранизация мемуаров «морского котика» из Техаса Криса Кайла, который служил снайпером в Ираке и стал рекордсменом по числу убитых солдат противника, за что иракцы прозвали его дьяволом. Кроме самой войны, фильм рассказывает о воспоминаниях жены Криса, которая была свидетелем растущей привязанности мужа к его сослуживцам.

  • Мировая премьера:11 ноября 2014

    ТЕХ.ДАННЫЕ:
    Качество: BDRip 1080p
    Формат: MKV
    Видео кодек: AVC
    Аудио кодек: AC3, DTS
    Видео: AVC, 1920x800 (2.40:1), 11187 kbps, 23,976 fps, 0,304 bpp
    Аудио №1: русский / DTS / 5.1 / 48 kHz / 1510 kbps / 24 bit ||
    Аудио №2: английский / AC3 / 5.1 / 48 kHz / 640 kbps / 16 bit
    Навигация по главам: есть



    Код:

    General
    Unique ID                                : 210829176448215958459197893565208010651 (0x9E9C38EFADD5A1CF837D4F709B9B1F9B)
    Complete name                            : D:\Торенты\American.Sniper.2014.BDRip.Ru.En.1080p.mkv
    Format                                   : Matroska
    Format version                           : Version 2
    File size                                : 12.6 GiB
    Duration                                 : 2h 12mn
    Overall bit rate                         : 13.6 Mbps
    Movie name                               : American.Sniper.2014.BDRip.1080p
    Encoded date                             : UTC 2015-05-03 16:08:13
    Writing application                      : mkvmerge v7.7.0 ('Six Voices') 64bit built on Feb 28 2015 23:39:33
    Writing library                          : libebml v1.3.1 + libmatroska v1.4.2

    Video
    ID                                       : 1
    Format                                   : AVC
    Format/Info                              : Advanced Video Codec
    Format profile                           : High@L4.1
    Format settings, CABAC                   : Yes
    Format settings, ReFrames                : 5 frames
    Codec ID                                 : V_MPEG4/ISO/AVC
    Duration                                 : 2h 12mn
    Bit rate                                 : 11.2 Mbps
    Width                                    : 1 920 pixels
    Height                                   : 800 pixels
    Display aspect ratio                     : 2.40:1
    Frame rate                               : 23.976 fps
    Color space                              : YUV
    Chroma subsampling                       : 4:2:0
    Bit depth                                : 8 bits
    Scan type                                : Progressive
    Bits/(Pixel*Frame)                       : 0.304
    Stream size                              : 10.4 GiB (82%)
    Title                                    : American.Sniper.2014.BDRip.1080p
    Writing library                          : x264 core 142 r2491 24e4fed
    Encoding settings                        : cabac=1 / ref=5 / deblock=1:-3:-3 / analyse=0x3:0x133 / me=tesa / subme=11 / psy=1 / psy_rd=1.05:0.00 / mixed_ref=1 / me_range=24 / chroma_me=1 / trellis=2 / 8x8dct=1 / cqm=0 / deadzone=21,11 / fast_pskip=0 / chroma_qp_offset=-2 / threads=12 / lookahead_threads=3 / sliced_threads=0 / nr=0 / decimate=1 / interlaced=0 / bluray_compat=0 / constrained_intra=0 / bframes=11 / b_pyramid=2 / b_adapt=2 / b_bias=0 / direct=3 / weightb=1 / open_gop=0 / weightp=2 / keyint=250 / keyint_min=23 / scenecut=40 / intra_refresh=0 / rc=crf / mbtree=0 / crf=15.0 / qcomp=0.70 / qpmin=0 / qpmax=69 / qpstep=4 / ip_ratio=1.40 / pb_ratio=1.30 / aq=1:0.70
    Language                                 : English
    Default                                  : Yes
    Forced                                   : No
    Matrix coefficients                      : BT.709-5, BT.1361, IEC 61966-2-4 709, SMPTE RP177

    Audio #1
    ID                                       : 2
    Format                                   : DTS
    Format/Info                              : Digital Theater Systems
    Codec ID                                 : A_DTS
    Duration                                 : 2h 12mn
    Bit rate mode                            : Constant
    Bit rate                                 : 1 510 Kbps
    Channel(s)                               : 6 channels
    Channel positions                        : Front: L C R, Side: L R, LFE
    Sampling rate                            : 48.0 KHz
    Bit depth                                : 24 bits
    Compression mode                         : Lossy
    Stream size                              : 1.40 GiB (11%)
    Title                                    : AVO -  В. Котов
    Language                                 : Russian
    Default                                  : Yes
    Forced                                   : No

    Audio #2
    ID                                       : 3
    Format                                   : AC-3
    Format/Info                              : Audio Coding 3
    Mode extension                           : CM (complete main)
    Codec ID                                 : A_AC3
    Duration                                 : 2h 12mn
    Bit rate mode                            : Constant
    Bit rate                                 : 640 Kbps
    Channel(s)                               : 6 channels
    Channel positions                        : Front: L C R, Side: L R, LFE
    Sampling rate                            : 48.0 KHz
    Bit depth                                : 16 bits
    Compression mode                         : Lossy
    Stream size                              : 607 MiB (5%)
    Language                                 : English
    Default                                  : No
    Forced                                   : No

    Text
    ID                                       : 4
    Format                                   : UTF-8
    Codec ID                                 : S_TEXT/UTF8
    Codec ID/Info                            : UTF-8 Plain Text
    Title                                    : SDH
    Language                                 : English
    Default                                  : No
    Forced                                   : No

    Menu
    00:00:00.000                             : en:00:00:00.000
    00:10:15.240                             : en:00:10:15.240
    00:18:56.927                             : en:00:18:56.927
    00:28:27.581                             : en:00:28:27.581
    00:39:04.425                             : en:00:39:04.425
    00:50:57.638                             : en:00:50:57.638
    01:00:06.728                             : en:01:00:06.728
    01:07:56.447                             : en:01:07:56.447
    01:28:44.027                             : en:01:28:44.027
    01:37:24.714                             : en:01:37:24.714
    01:45:57.351                             : en:01:45:57.351
    01:54:44.002                             : en:01:54:44.002
    02:04:13.363                             : en:02:04:13.363

    Скриншоты:


    © Оформление by Ворон
    piratbit.pw



  • Скачать Снайпер через торрент https://pic.kartinco.top/images/6/ordi9.jpg Скачать фильм Снайпер через торрент бесплантно в хорошем качестве Описание: Экранизация мемуаров «морского котика» из Техаса Криса Кайла, который служил снайпером в Ираке и стал рекордсменом по числу ... 10 10 6
    Info! Золотая раздача, скачанное не засчитывается.
    Торрент: Зарегистрирован [2015-05-04 03:43] · скачан: 45 раз
    Статус: √ проверено
    Размер: 12.61 GB
    Как cкачать? Как скачать Снайпер через торрент | UTorrent

    % Раздел Тема Автор DL S | L
    Фильмы [HD 720p, 1080p] (Хороший звук DUB, MVO) [ 13.44 GB ] Снайпер / American Sniper [2014 военный BDRip 1080p] 2xDub + MVO + AVO + Original + Sub от R.G. HD-Films Seedtank Скачать
    1 | 0
    Ultra HD (UHD: 2K, 4K, 8K) — видео сверхвысокой чёткости [ 25.52 GB ] Снайпер / American Sniper [2014 военный биография UHD WEBRip 2160p] DUB + MVO + AVO sheker187 Скачать
    1 | 0
    Фильмы 2014 [DVDrip, WEB-DLRip, HDrip] [ 1.37 GB ] Снайпер / Американский снайпер / American Sniper [2014 военный BDRip Ворон Скачать
    1 | 0
    Фильмы 2014 [DVDrip, WEB-DLRip, HDrip] [ 1.52 GB ] Снайпер / American Sniper [2014 военный биография BDRip-AVC] DUB potroks Скачать
    1 | 0
    Фильмы (DVD фильмы) [ 6.62 GB ] Снайпер / American Sniper [2014 военный биография DVD9] R5 voovaz Скачать
    1 | 0
    Фильмы (BDRip, HDrip-AVC) (48-60 fps) [ 3.94 GB ] Снайпер / American Sniper [2014 военный BDRip-AVC 60fps ] от R.G. HD-Films Tiberiumsun69 Скачать
    1 | 0
    Фильмы (HD 720p, 1080p) (48-60 fps) [ 13.98 GB ] Снайпер / American Sniper [2014 военный BDRip 1080p / 60 FPS ] Tiberiumsun69 Скачать
    1 | 0

    28-11-2019 20:33  

    Отключить всю рекламу на сайте

      Дорогой пользователь! Огромная просьба, поблагодарите релизера, оцените раздачу и оставьте свои комментарий, если Вы скачали Снайпер через торрент бесплатно! Внесите свою лепту в развитие PiratBit!
      Комментировать посты могут только пользователи прошедшие не сложную регистрацию
      Показать сообщения:    

      Снайпер через торрент
      Скачать бесплатно Снайпер
      Снайпер скачать торрент
      Снайпер смотреть онлайн
      Cкачать фильм Снайпер бесплатно
      Снайпер скачать торрент в хорошем качестве
      Снайпер смотреть онлайн бесплатно в хорошем качестве


      Вы не можете начинать темы
      Вы не можете отвечать на сообщения
      Вы не можете редактировать свои сообщения
      Вы не можете удалять свои сообщения
      Вы не можете голосовать в опросах
      Вы не можете прикреплять файлы к сообщениям
      Вы можете скачивать файлы