Ссылка на приватное зеркало всего за 1$. Внимание количество ограничено!!!

iTunes

iTunes

iTunes

1

iTunes

iTunes

iTunes

iTunes

iTunes

30
pack

$ от Little Big

ВАЖНО

!!Акция!!

Alien_RageХит недели

RePack

Resident Evil 21

ИГРА 18+

pack

RePack

jed

!!Акция!!

Alien_Rage

RePack

fifa19

RePack

Assassins Creed: Odyssey

RePack

NEED FOR SPEED™ PAYBACK

4 сезон

9 сезон

Бесстыжие 9 сезон

Все сериалы

все сериалы на PB.wtf

RePack

FAR CRY 5
  

Раскоп (Сергей Дахин ) [2014, драма, комедия, WEB-DLRip] piratbit.pw

Раскоп через торрент piratbit.pw

Размер: 1.37 GB | Добавлен: 5 лет 2 мес. назад | Торрент скачан:429 раз
Скачать  

04-05-2015 03:34 Раскоп Скачать торрент  


Раскоп
«Дружба - не дружба... Любовь - не любовь...»

ИНФОРМАЦИЯ:
Год выпуска:2014
Страна: Россия
Жанр: драма, комедия
Продолжительность: 01:23:21
Перевод: Не требуется
Режиссер: Сергей Дахин

В Ролях:


Кирилл Пирогов, Олег Нирян, Екатерина Федулова, Никита Тюнин, Владас Багдонас, Александр Петров, Ксения Богданова, Наталия Денисенко, Александр Безсмертный

Описание:
Писатель-неудачник Паша и двое его школьных друзей - алкоголик-бизнесмен Самородов и примерный семьянин Скляренко, заскучав от повседневной суеты, жён и рутины, решают отправиться в отпуск навстречу приключениям. Волею судьбы сорокалетние мальчишки оказываются на археологическом раскопе. Получив возможность столкнуться со своим прошлым, Паша, освободившись от иллюзий, комплексов и страхов, наконец, обретает внутреннюю гармонию...


ТЕХ.ДАННЫЕ:
Качество: WEB-DLRip
Формат: AVI
Видео кодек: XviD
Аудио кодек: AC3
Видео: XviD, 720x304 (2.35:1), 1957 kbps, 24 fps, 0,355 bpp
Аудио: AC3 / 5.1 / 48 kHz / 384 kbps / 16 bit



Код:

General
Complete name                            : D:\Торенты\Raskop.2014.O.WEB-DLRip.UNIONGANG.ELEKTRI4KA.avi
Format                                   : AVI
Format/Info                              : Audio Video Interleave
File size                                : 1.37 GiB
Duration                                 : 1h 23mn
Overall bit rate                         : 2 350 Kbps

Video
ID                                       : 0
Format                                   : MPEG-4 Visual
Format profile                           : Advanced Simple@L5
Format settings, BVOP                    : 2
Format settings, QPel                    : No
Format settings, GMC                     : No warppoints
Format settings, Matrix                  : Default (MPEG)
Muxing mode                              : Packed bitstream
Codec ID                                 : XVID
Codec ID/Hint                            : XviD
Duration                                 : 1h 23mn
Bit rate                                 :  1957 Kbps
Width                                    : 720 pixels
Height                                   : 304 pixels
Display aspect ratio                     : 2.35:1
Frame rate                               : 24.000 fps
Color space                              : YUV
Chroma subsampling                       : 4:2:0
Bit depth                                : 8 bits
Scan type                                : Progressive
Compression mode                         : Lossy
Bits/(Pixel*Frame)                       : 0.355
Stream size                              : 1.09 GiB (79%)
Writing library                          : XviD 73

Audio
ID                                       : 1
Format                                   : AC-3
Format/Info                              : Audio Coding 3
Mode extension                           : CM (complete main)
Codec ID                                 : 2000
Duration                                 : 1h 23mn
Bit rate mode                            : Constant
Bit rate                                 : 384 Kbps
Channel(s)                               : 6 channels
Channel positions                        : Front: L C R, Side: L R, LFE
Sampling rate                            : 48.0 KHz
Bit depth                                : 16 bits
Compression mode                         : Lossy
Stream size                              : 229 MiB (16%)
Alignment                                : Split accross interleaves

Скриншоты:


© Оформление by Ворон
piratbit.pw



Скачать Раскоп через торрент http://pic.kartinco.top/images/6/ordi9.jpg Скачать фильм Раскоп через торрент бесплантно в хорошем качестве Описание: Писатель-неудачник Паша и двое его школьных друзей - алкоголик-бизнесмен Самородов и примерный семьянин Скляренко, заскучав от ... 8.8 10 16
Торрент: Зарегистрирован [2015-05-04 03:34] · скачан: 429 раз
Статус: √ проверено
Размер: 1.37 GB
Как cкачать? Как скачать Раскоп через торрент | qTorrent

% Раздел Тема Автор DL S | L
Зарубежные сериалы [ 6.09 GB ] Раскопка / Раскопки / Dig / Сезон: 1 / Серии: 1-10 из 10 [2015 WEB-DLRip-AVC] MVO [NewStudio] bober100 Скачать
1 | 0
T Фильмы 2018 [DVDrip, WEB-DLRip, HDrip] (DUB, MVO) [ 1.46 GB ] Раскопки / The Dig [2018 WEB-DLRip] [MVO] killermax2013 Скачать
1 | 0
Документальные фильмы и телепередачи [ 263 MB ] Азов. Раскопки Тура Хейердала / Сага о том как Тур Хейердал искал в Азове следы бога Одина [2001 Док. Культура TVRip] кэп Скачать
1 | 0
Наши новые фильмы 2014 [ 705 MB ] Раскоп [2014 WEB-DLRip] coc900 Скачать
1 | 0
Зарубежные сериалы [ 14.79 GB ] Раскопки / Dig / Сезон: 1 / Серии 1-10 из 10 [2015 HDTVRip 720р MVO] [NewStudio] GEKADOL Скачать
1 | 0
Зарубежные сериалы [ 5.52 GB ] Раскопки / Dig / Сезон: 1 / Серии 1-10 из 10 [2015 HDTVRip MVO] [NewStudio] GEKADOL Скачать
1 | 0
Зарубежные сериалы [ 751 MB ] Раскопки / Раскопка / Dig / Сезон: 1 / Серии: 1 из 10 [2015 WEB-DLRip] MVO + Original Assasinca Скачать
1 | 0

28-11-2019 20:33  

Отключить всю рекламу на сайте

04-05-2015 15:38 Раскоп Скачать торрент  

Такая мутатень, и это ещё мягко сказано.piratbit.pw



    Дорогой пользователь! Огромная просьба, поблагодарите релизера, оцените раздачу и оставьте свои комментарий, если Вы скачали Раскоп через торрент бесплатно! Внесите свою лепту в развитие PiratBit!
    Комментировать посты могут только пользователи прошедшие не сложную регистрацию
    Показать сообщения:    

    Раскоп через торрент
    Скачать бесплатно Раскоп
    Раскоп скачать торрент
    Раскоп смотреть онлайн
    Cкачать фильм Раскоп бесплатно
    Раскоп скачать торрент в хорошем качестве
    Раскоп смотреть онлайн бесплатно в хорошем качестве


    Вы не можете начинать темы
    Вы не можете отвечать на сообщения
    Вы не можете редактировать свои сообщения
    Вы не можете удалять свои сообщения
    Вы не можете голосовать в опросах
    Вы не можете прикреплять файлы к сообщениям
    Вы можете скачивать файлы