1 сезон

1 сезон

iTunes

1

КиноПоиск HD

Кинопоиск HD

iTunes

13

1 сезон

RePack

30

Новинка

ВАЖНО

ИГРА 18+

pack

RePack

MK11
pack

Легкие деньги

RePack

jed

RePack

fifa19

RePack

RDR2

RePack

NEED FOR SPEED™ PAYBACK

4 сезон

9 сезон

Бесстыжие 9 сезон

Все сериалы

все сериалы на PB.wtf

RePack

FAR CRY 5
  
Magnet ссылка

Лесной змей / Wyrmwood (Кия Роуч-Тернер) [2014 г., ужасы, боевик, HDRip, Авторский одноголосый "Д. Есарев"] piratbit.pw

Лесной змей через торрент piratbit.pw

Размер: 2.03 GB | Добавлен: 5 лет 11 мес. назад | Торрент скачан:82 раза
Скачать  

03-05-2015 18:34 Лесной змей Скачать торрент  

Лесной змей / Wyrmwood
Год выпуска: 2014
Страна: Австралия / Guerilla Films
Жанр: ужасы, боевик
Продолжительность: 01:38:17
Перевод: Авторский одноголосый (Д. Есарев)

Режиссер: Кия Роуч-Тернер

IMDB 6.80 (137)


В ролях: Джей Галлахер, Бьянка Брэди, Леон Бурчилл, Люк МакКензи, Юр Кович, Кит Агиус, Катрин Террачини, Meganne West, Кэйн Томпсон, Бет Обри

Описание: Барри был талантливым механиком и семейным человеком, пока его жизнь не была разрушена в канун зомби-апокалипсиса. В дороге он объединяется с ещё одним выжившим, Чалкером, и вместе они вооружают себя, чтобы противостоять на своём пути орде плотоядных монстров, рыщущих в суровых австралийских зарослях.

Качество: HDRip
Формат: AVI
Видео кодек: XviD
Аудио кодек: AC3
Видео: 720x400 (1.80:1), 24.000 fps, XviD build 50 ~2499 kbps avg, 0.36 bit/pixel
Аудио: 48 kHz, AC3 Dolby Digital, 3/2 (L,C,R,l,r) + LFE ch, ~448 kbps
скриншот   скриншот   скриншот   скриншот   скриншот   скриншот   скриншот   скриншот   скриншот   скриншот  

Общее
Полное имя : F:\кино\Лесной змей.2014.A.HDRip.avi
Формат : AVI
Формат/Информация : Audio Video Interleave
Профиль формата : OpenDML
Размер файла : 2,03 Гбайт
Продолжительность : 1 ч. 38 м.
Общий поток : 2955 Кбит/сек
Программа кодирования : VirtualDubMod 1.5.10.3 | www.virtualdub-fr.org || (build 2550/release)
Библиотека кодирования : VirtualDubMod build 2550/release

Видео
Идентификатор : 0
Формат : MPEG-4 Visual
Профиль формата : Advanced Simple@L5
Параметр BVOP формата : 2
Параметр QPel формата : Нет
Параметр GMC формата : Без точки перехода
Параметр матрицы формата : Default (H.263)
Идентификатор кодека : XVID
Идентификатор кодека/Подсказка : XviD
Продолжительность : 1 ч. 38 м.
Битрейт : 2494 Кбит/сек
Ширина : 720 пикселей
Высота : 400 пикселей
Соотношение сторон : 16:9
Частота кадров : 24,000 кадра/сек
Цветовое пространство : YUV
Субдискретизация насыщенности : 4:2:0
Битовая глубина : 8 бит
Тип развёртки : Прогрессивная
Метод сжатия : С потерями
Бит/(Пиксели*Кадры) : 0.361
Размер потока : 1,71 Гбайт (84%)
Библиотека кодирования : XviD 1.2.1 (UTC 2008-12-04)

Аудио
Идентификатор : 1
Формат : AC-3
Формат/Информация : Audio Coding 3
Расширение режима : CM (complete main)
Параметр Endianness формата : Big
Идентификатор кодека : 2000
Продолжительность : 1 ч. 38 м.
Вид битрейта : Постоянный
Битрейт : 448 Кбит/сек
Каналы : 6 каналов
Расположение каналов : Front: L C R, Side: L R, LFE
Частота : 48,0 КГц
Битовая глубина : 16 бит
Метод сжатия : С потерями
Размер потока : 315 Мбайт (15%)
Выравнивание : Разделение по промежуткам
Продолжительность промежутка : 42 мс. (1,00 видеокадр)
Время предзагрузки промежутка : 500 мс.

piratbit.pw



Скачать Лесной змей через торрент https://pic1.kartinco.top/images/10/b4i51.jpg Скачать фильм Лесной змей через торрент бесплантно в хорошем качестве Описание: Барри был талантливым механиком и семейным человеком, пока его жизнь не была разрушена в канун зомби-апокалипсиса. В дороге он ... 8.9 10 8
Торрент: Зарегистрирован [2015-05-03 18:34] · скачан: 82 раз
Статус: √ проверено
Размер: 2.03 GB
Как cкачать? Как скачать Лесной змей через торрент | UTorrent

% Раздел Тема Автор DL S | L
T Фильмы (WEB-DL 720p, 1080p) [ 3.4 GB ] Лесной змей / Wyrmwood [2014 WEB-DL 720p DVO+VO] Ворон Скачать
1 | 0
T Фильмы 2014 (Звук TS, Cam, VO, DVO) [ 2.27 GB ] Лесной змей / Wyrmwood [2014 WEB-DLRip-AVC Любительский двухголосый [DeadSno & den904] Ворон Скачать
1 | 0
Фильмы 2014 (Звук TS, Cam, VO, DVO) [ 1.37 GB ] Лесной змей / Wyrmwood [2014 WEB-DLRip Любительский двухголосый [DeadSno & den904] Ворон Скачать
1 | 0
Фильмы 2014 (Звук TS, Cam, VO, DVO) [ 1.37 GB ] Лесной змей / Wyrmwood [2014 WEB-DLRip Любительский [Xixidok] Ворон Скачать
1 | 0
Фильмы (WEB-DL 720p, 1080p) [ 3.14 GB ] Лесной змей / Wyrmwood [2014 WEB-DL 720p Любительский [Xixidok] Ворон Скачать
1 | 1

28-11-2019 20:33  

Отключить всю рекламу на сайте

    Дорогой пользователь! Огромная просьба, поблагодарите релизера, оцените раздачу и оставьте свои комментарий, если Вы скачали Лесной змей через торрент бесплатно! Внесите свою лепту в развитие PiratBit!
    Комментировать посты могут только пользователи прошедшие не сложную регистрацию
    Показать сообщения:    

    Лесной змей через торрент
    Скачать бесплатно Лесной змей
    Лесной змей скачать торрент
    Лесной змей смотреть онлайн
    Cкачать фильм Лесной змей бесплатно
    Лесной змей скачать торрент в хорошем качестве
    Лесной змей смотреть онлайн бесплатно в хорошем качестве


    Вы не можете начинать темы
    Вы не можете отвечать на сообщения
    Вы не можете редактировать свои сообщения
    Вы не можете удалять свои сообщения
    Вы не можете голосовать в опросах
    Вы не можете прикреплять файлы к сообщениям
    Вы можете скачивать файлы