Ссылка на приватное зеркало нашего сайта всего за 1$. Внимание количество ограничено!!!

2 сезон

iTunes

1 сезон

1

iTunes

iTunes

iTunes

1 сезон

RePack

30

ИГРА 18+

pack

ВАЖНО

!!Акция!!

Alien_RageХит недели

RePack

MK11
pack

Забери бонус

RePack

jed

!!Акция!!

Alien_Rage

RePack

fifa19

RePack

Assassins Creed: Odyssey

RePack

NEED FOR SPEED™ PAYBACK

4 сезон

9 сезон

Бесстыжие 9 сезон

Все сериалы

все сериалы на PB.wtf

RePack

FAR CRY 5
  

Пациенты (Элла Омельченко) [2014 г., драма, комедия, WEB-DLRip] piratbit.pw

Пациенты через торрент piratbit.pw

Размер: 705 MB | Добавлен: 5 лет 5 мес. назад | Торрент скачан:215 раз
Скачать  

03-05-2015 15:38 Пациенты Скачать торрент  

Пациенты
Год выпуска: 2014
Страна: Россия / Лук-фильм
Жанр: драма, комедия
Продолжительность: 01:26:56

Режиссер: Элла Омельченко



В ролях: Павел Баршак, Тимофей Трибунцев, Марьяна Кирсанова, Дмитрий Мухамадеев

Описание: Сергей посещает психоаналитика Брюсова, который на каждом сеансе внушает ему мысль о разводе со своей супругой. «Семья — это не главное! Главное — чего хочешь ты!» По мнению Брюсова жена подавляет в нем собственное «ЭГО». Леночка же, супруга Сергея, ходит на исповедь к священнику, отцу Сергию. Батюшка, в отличие от психоаналитика, наказывает Леночке, во что бы то ни стало сохранить семью. «Семья — это главное! Всё ради семьи!» Это противостояние психоаналитика и священника длится уже полтора года. Кто же победит?

Качество: WEB-DLRip
Формат: AVI
Видео кодек: XviD
Аудио кодек: MP3
Видео: 640x360 (1.78:1), 25 fps, XviD build 50 ~996 kbps avg, 0.17 bit/pixel
Аудио: 48 kHz, MPEG Layer 3, 2 ch, ~128.00 kbps avg
скриншот   скриншот   скриншот   скриншот   скриншот   скриншот  

Общее
Полное имя : F:\кино\Пациенты.2014.WEB-DLRip.700MB.avi
Формат : AVI
Формат/Информация : Audio Video Interleave
Размер файла : 705 Мбайт
Продолжительность : 1 ч. 26 м.
Общий поток : 1135 Кбит/сек
Программа кодирования : VirtualDubMod 1.5.10.3 | www.virtualdub-fr.org || (build 2550/release)
Библиотека кодирования : VirtualDubMod build 2550/release

Видео
Идентификатор : 0
Формат : MPEG-4 Visual
Профиль формата : Advanced Simple@L5
Параметр BVOP формата : 2
Параметр QPel формата : Нет
Параметр GMC формата : Без точки перехода
Параметр матрицы формата : Default (H.263)
Идентификатор кодека : XVID
Идентификатор кодека/Подсказка : XviD
Продолжительность : 1 ч. 26 м.
Битрейт : 997 Кбит/сек
Ширина : 640 пикселей
Высота : 360 пикселей
Соотношение сторон : 16:9
Частота кадров : 25,000 кадров/сек
Цветовое пространство : YUV
Субдискретизация насыщенности : 4:2:0
Битовая глубина : 8 бит
Тип развёртки : Прогрессивная
Метод сжатия : С потерями
Бит/(Пиксели*Кадры) : 0.173
Размер потока : 620 Мбайт (88%)
Библиотека кодирования : XviD 1.2.1 (UTC 2008-12-04)

Аудио
Идентификатор : 1
Формат : MPEG Audio
Версия формата : Version 1
Профиль формата : Layer 3
Режим : Joint stereo
Расширение режима : MS Stereo
Идентификатор кодека : 55
Идентификатор кодека/Подсказка : MP3
Продолжительность : 1 ч. 26 м.
Вид битрейта : Постоянный
Битрейт : 128 Кбит/сек
Каналы : 2 канала
Частота : 48,0 КГц
Метод сжатия : С потерями
Размер потока : 79,6 Мбайт (11%)
Выравнивание : Соединение по промежуткам
Продолжительность промежутка : 40 мс. (1,00 видеокадр)
Время предзагрузки промежутка : 504 мс.
Библиотека кодирования : LAME3.99r
Настройки программы : -m j -V 4 -q 2 -lowpass 17 -b 128

piratbit.pw



Скачать Пациенты через торрент http://pic1.kartinco.top/images/10/kk4lt.jpg Скачать фильм Пациенты через торрент бесплантно в хорошем качестве Описание: Сергей посещает психоаналитика Брюсова, который на каждом сеансе внушает ему мысль о разводе со своей супругой. «Семья — это не ... 9 10 8
Торрент: Зарегистрирован [2015-05-03 15:38] · скачан: 215 раз
Статус: √ проверено
Размер: 705 MB
Как cкачать? Как скачать Пациенты через торрент | qTorrent

% Раздел Тема Автор DL S | L
Фильмы 2014 [DVDrip, WEB-DLRip, HDrip] [ 1.42 GB ] Вирус: Нулевой пациент / Cabin Fever: Patient Zero [2014 BDRip] MVO Twi7ter Скачать
1 | 0
Фильмы 2014 [DVDrip, WEB-DLRip, HDrip] [ 742 MB ] Вирус: Нулевой пациент / Cabin Fever: Patient Zero [2014 HDRip] MVO bober100 Скачать
1 | 0
Фильмы 2014 [DVDrip, WEB-DLRip, HDrip] [ 1.46 GB ] Вирус: Нулевой пациент / Cabin Fever: Patient Zero [2014 HDRip] MVO bober100 Скачать
1 | 0
Фильмы [HD 720p, 1080p] (Хороший звук DUB, MVO) [ 9.25 GB ] Вирус: Нулевой пациент / Cabin Fever: Patient Zero [2014 BDRip 1080p] MVO bober100 Скачать
2 | 0
Фильмы [HD 720p, 1080p] (Хороший звук DUB, MVO) [ 4.32 GB ] Вирус: Нулевой пациент / Cabin Fever: Patient Zero [2014 BDRip 720p] MVO bober100 Скачать
2 | 0
Наши сериалы [ 2.75 GB ] Идеальный пациент / Серии: 1-2 из 2 [2020 Мело HDTVRip-AVC] bober100 Скачать
2 | 0
Наши сериалы [ 2.26 GB ] Идеальный пациент / Серии: 1-2 из 2 [2020 Мело HDTVRip] bober100 Скачать
1 | 0

28-11-2019 20:33  

Отключить всю рекламу на сайте

05-06-2015 10:45 Пациенты Скачать торрент  

На четвёртом и пятом скрине Дмитрий Люсёк-Сорокин из Камеди? )))piratbit.pw



06-06-2015 18:40 Пациенты Скачать торрент  

zik-2 писал(а):

На четвёртом и пятом скрине Дмитрий Люсёк-Сорокин из Камеди? )))

Гы! А на последнем - Шнуров!)))))piratbit.pw



    Дорогой пользователь! Огромная просьба, поблагодарите релизера, оцените раздачу и оставьте свои комментарий, если Вы скачали Пациенты через торрент бесплатно! Внесите свою лепту в развитие PiratBit!
    Комментировать посты могут только пользователи прошедшие не сложную регистрацию
    Показать сообщения:    

    Пациенты через торрент
    Скачать бесплатно Пациенты
    Пациенты скачать торрент
    Пациенты смотреть онлайн
    Cкачать фильм Пациенты бесплатно
    Пациенты скачать торрент в хорошем качестве
    Пациенты смотреть онлайн бесплатно в хорошем качестве


    Вы не можете начинать темы
    Вы не можете отвечать на сообщения
    Вы не можете редактировать свои сообщения
    Вы не можете удалять свои сообщения
    Вы не можете голосовать в опросах
    Вы не можете прикреплять файлы к сообщениям
    Вы можете скачивать файлы