Ссылка на приватное зеркало нашего сайта всего за 1$. Внимание количество ограничено!!!

2 сезон

iTunes

1 сезон

1

iTunes

iTunes

iTunes

1 сезон

RePack

30

ИГРА 18+

pack

ВАЖНО

!!Акция!!

Alien_RageХит недели

RePack

MK11
pack

Забери бонус

RePack

jed

!!Акция!!

Alien_Rage

RePack

fifa19

RePack

Assassins Creed: Odyssey

RePack

NEED FOR SPEED™ PAYBACK

4 сезон

9 сезон

Бесстыжие 9 сезон

Все сериалы

все сериалы на PB.wtf

RePack

FAR CRY 5
  

Домик в сердце (Грач Кешишян ) [2014, мелодрама, комедия, семейный, WEB-DLRip] piratbit.pw

Домик в сердце через торрент piratbit.pw

Размер: 1.46 GB | Добавлен: 5 лет 5 мес. назад | Торрент скачан:660 раз
Скачать  

03-05-2015 04:37 Домик в сердце Скачать торрент  


Домик в сердце


ИНФОРМАЦИЯ:
Год выпуска:2014
Страна: Россия, Армения
Жанр: мелодрама, комедия, семейный
Продолжительность: 01:29:25
Перевод: Не требуется
Режиссер: Грач Кешишян

В Ролях:


Мария Сёмкина (Катя), Хорен Левонян (Артур), Армен Джигарханян (дед), Екатерина Стриженова (мама), Александр Хачатрян (отец), Джулия Погосова (Аня), Сергей Погосов (Сережа), Эмилия Погосова (Эмилия), Ян Цапник (Макс), Олег Шкловский (Виктор Павлович), Анастасия Стежко (Маша), Фрида Йорк (Армине)

Описание:
Катя - молодая бизнес-вумен, которой никогда не хватает времени на личную жизнь. Умирая, отец оставляет ей в наследство свою компанию с условием, что она ее получит, лишь когда обзаведется мужем и тремя детьми. По иронии судьбы водитель Кати Артур, и по совместительству отец-одиночка троих детей, остро нуждается в деньгах, чтобы закрыть свои долги. Как им обоим выбраться из своих непростых ситуаций? Решение приходит неожиданно: надо просто вступить в брак по расчету. Но традиции все равно нужно соблюдать, и парочке предстоит увлекательное путешествие на родину Артура - Армению, чтобы как следует познакомиться с его многочисленной родней.

  • Мировая премьера:4 сентября 2014

    ТЕХ.ДАННЫЕ:
    Качество: WEB-DLRip
    Формат: AVI
    Видео кодек: XviD
    Аудио кодек: AC3
    Видео: XviD, 720x352 (2.045), 1847 kbps, 25 fps, 0,292 bpp
    Аудио: AC3 / 2.0 / 48 kHz / 384 kbps / 16 bit



    Код:

    General
    Complete name                            : D:\Торенты\Domik.v.Serdce.2014.O.WEB-DLRip.avi
    Format                                   : AVI
    Format/Info                              : Audio Video Interleave
    File size                                : 1.46 GiB
    Duration                                 : 1h 29mn
    Overall bit rate                         : 2 333 Kbps
    Movie name                               : Domik.v.Serdce.2014.O.WEB-DLRip.ELEKTRI4KA.uniongang.tv
    Writing application                      : VirtualDubMod 1.5.10.3 | www.virtualdub-fr.org || (build 2550/release)
    Copyright                                : UNIONGANG&RUSTORRENTS

    Video
    ID                                       : 0
    Format                                   : MPEG-4 Visual
    Format profile                           : Advanced Simple@L5
    Format settings, BVOP                    : 2
    Format settings, QPel                    : No
    Format settings, GMC                     : No warppoints
    Format settings, Matrix                  : Default (MPEG)
    Muxing mode                              : Packed bitstream
    Codec ID                                 : XVID
    Codec ID/Hint                            : XviD
    Duration                                 : 1h 29mn
    Bit rate                                 : 1 847 Kbps
    Width                                    : 720 pixels
    Height                                   : 352 pixels
    Display aspect ratio                     : 2.045
    Frame rate                               : 25.000 fps
    Color space                              : YUV
    Chroma subsampling                       : 4:2:0
    Bit depth                                : 8 bits
    Scan type                                : Progressive
    Compression mode                         : Lossy
    Bits/(Pixel*Frame)                       : 0.292
    Stream size                              : 1.15 GiB (79%)
    Writing library                          : XviD 73

    Audio
    ID                                       : 1
    Format                                   : AC-3
    Format/Info                              : Audio Coding 3
    Mode extension                           : CM (complete main)
    Codec ID                                 : 2000
    Duration                                 : 1h 29mn
    Bit rate mode                            : Constant
    Bit rate                                 : 384 Kbps
    Channel(s)                               : 2 channels
    Channel positions                        : Front: L R
    Sampling rate                            : 48.0 KHz
    Bit depth                                : 16 bits
    Compression mode                         : Lossy
    Stream size                              : 246 MiB (16%)
    Alignment                                : Split accross interleaves

    Скриншоты:


    © Оформление by Ворон
    piratbit.pw



  • Скачать Домик в сердце через торрент http://pic.kartinco.top/images/6/ordi9.jpg Скачать фильм Домик в сердце через торрент бесплантно в хорошем качестве Описание: Катя - молодая бизнес-вумен, которой никогда не хватает времени на личную жизнь. Умирая, отец оставляет ей в наследство свою ... 8.7 10 20
    Торрент: Зарегистрирован [2015-05-03 04:37] · скачан: 660 раз
    Статус: √ проверено
    Размер: 1.46 GB
    Как cкачать? Как скачать Домик в сердце через торрент | qTorrent

    % Раздел Тема Автор DL S | L
    Наши новые фильмы 2014 [ 747 MB ] Домик в сердце [2014 WEB-DLRip] Sherif Скачать
    1 | 0

    28-11-2019 20:33  

    Отключить всю рекламу на сайте

      Дорогой пользователь! Огромная просьба, поблагодарите релизера, оцените раздачу и оставьте свои комментарий, если Вы скачали Домик в сердце через торрент бесплатно! Внесите свою лепту в развитие PiratBit!
      Комментировать посты могут только пользователи прошедшие не сложную регистрацию
      Показать сообщения:    

      Домик в сердце через торрент
      Скачать бесплатно Домик в сердце
      Домик в сердце скачать торрент
      Домик в сердце смотреть онлайн
      Cкачать фильм Домик в сердце бесплатно
      Домик в сердце скачать торрент в хорошем качестве
      Домик в сердце смотреть онлайн бесплатно в хорошем качестве


      Вы не можете начинать темы
      Вы не можете отвечать на сообщения
      Вы не можете редактировать свои сообщения
      Вы не можете удалять свои сообщения
      Вы не можете голосовать в опросах
      Вы не можете прикреплять файлы к сообщениям
      Вы можете скачивать файлы