1 сезон

1 сезон

iTunes

1

КиноПоиск HD

Кинопоиск HD

iTunes

13

1 сезон

RePack

30

Новинка

ВАЖНО

ИГРА 18+

pack

RePack

MK11
pack

Легкие деньги

RePack

jed

RePack

fifa19

RePack

RDR2

RePack

NEED FOR SPEED™ PAYBACK

4 сезон

9 сезон

Бесстыжие 9 сезон

Все сериалы

все сериалы на PB.wtf

RePack

FAR CRY 5
  
Magnet ссылка

Париж: Город мёртвых / As Above, So Below (Джон Эрик Даудл) [2014 г., ужасы, триллер, HDRip, Авторский одноголосый "Д. Есарев "] piratbit.pw

Париж: Город мёртвых через торрент piratbit.pw

Размер: 1.46 GB | Добавлен: 5 лет 11 мес. назад | Торрент скачан:141 раз
Скачать  

02-05-2015 18:15 Париж: Город мёртвых Скачать торрент  

Париж: Город мёртвых / As Above So Below
Год выпуска: 2014
Страна: США / Legendary Pictures, Universal Pictures, Brothers Dowdle Productions See
Жанр: ужасы, триллер
Продолжительность: 01:33:08
Перевод: Авторский одноголосый (Д. Есарев)

Режиссер: Джон Эрик Даудл

В ролях: Пердита Викс, Бен Фельдман, Эдвин Ходж, Франсуа Сивиль, Мэрион Ламберт, Али Мархьяр, Косме Кастро, Хамид Джавадан, Тео Чолби, Эми Леви

Описание: Величие Эйфелевой башни и роскошь бутиков, ароматы изысканной кухни и краски Елисейских полей — это лишь саван, под которым скрывается настоящий Париж. Здесь, в бесконечных катакомбах живут истинные владыки этого мира.

Заблудшая душа, добро пожаловать в Город мертвых…

Качество: HDRip
Формат: AVI
Видео кодек: XviD
Аудио кодек: AC3
Видео: 720x384 (1.88:1), 23.976 fps, XviD build 50 ~1782 kbps avg, 0.27 bit/pixel
Аудио: 48 kHz, AC3 Dolby Digital, 3/2 (L,C,R,l,r) + LFE ch, ~448 kbps
скриншот   скриншот   скриншот   скриншот   скриншот   скриншот  

Общее
Полное имя : F:\кино\Париж. Город мёртвых.2014.HDRip.avi
Формат : AVI
Формат/Информация : Audio Video Interleave
Размер файла : 1,46 Гбайт
Продолжительность : 1 ч. 33 м.
Общий поток : 2240 Кбит/сек
Программа кодирования : VirtualDubMod 1.5.10.3 | www.virtualdub-fr.org || (build 2550/release)
Библиотека кодирования : VirtualDubMod build 2550/release

Видео
Идентификатор : 0
Формат : MPEG-4 Visual
Профиль формата : Advanced Simple@L5
Параметр BVOP формата : 2
Параметр QPel формата : Нет
Параметр GMC формата : Без точки перехода
Параметр матрицы формата : Default (H.263)
Идентификатор кодека : XVID
Идентификатор кодека/Подсказка : XviD
Продолжительность : 1 ч. 33 м.
Битрейт : 1783 Кбит/сек
Ширина : 720 пикселей
Высота : 384 пикселя
Соотношение сторон : 1,85:1
Частота кадров : 23,976 кадра/сек
Цветовое пространство : YUV
Субдискретизация насыщенности : 4:2:0
Битовая глубина : 8 бит
Тип развёртки : Прогрессивная
Метод сжатия : С потерями
Бит/(Пиксели*Кадры) : 0.269
Размер потока : 1,16 Гбайт (80%)
Библиотека кодирования : XviD 1.2.1 (UTC 2008-12-04)

Аудио
Идентификатор : 1
Формат : AC-3
Формат/Информация : Audio Coding 3
Расширение режима : CM (complete main)
Параметр Endianness формата : Big
Идентификатор кодека : 2000
Продолжительность : 1 ч. 33 м.
Вид битрейта : Постоянный
Битрейт : 448 Кбит/сек
Каналы : 6 каналов
Расположение каналов : Front: L C R, Side: L R, LFE
Частота : 48,0 КГц
Битовая глубина : 16 бит
Метод сжатия : С потерями
Размер потока : 298 Мбайт (20%)
Выравнивание : Разделение по промежуткам
Продолжительность промежутка : 42 мс. (1,00 видеокадр)
Время предзагрузки промежутка : 500 мс.

piratbit.pw



Скачать Париж: Город мёртвых через торрент https://pic1.kartinco.top/images/10/vwmcq.jpg Скачать фильм Париж: Город мёртвых через торрент бесплантно в хорошем качестве Описание: Величие Эйфелевой башни и роскошь бутиков, ароматы изысканной кухни и краски Елисейских полей — это лишь саван, под которым ... 9.3 10 10
Торрент: Зарегистрирован [2015-05-02 18:15] · скачан: 141 раз
Статус: √ проверено
Размер: 1.46 GB
Как cкачать? Как скачать Париж: Город мёртвых через торрент | UTorrent

% Раздел Тема Автор DL S | L
Фильмы (BDRip, HDrip-AVC) (48-60 fps) [ 3.54 GB ] Париж: Город мёртвых / As Above So Below [2014 BDRip-AVC 60fps ] Tiberiumsun69 Скачать
1 | 0
Фильмы [HD 720p, 1080p] (Хороший звук DUB, MVO) [ 7.76 GB ] Париж: Город мёртвых / As Above So Below [2014 BDRip 1080p +Авторский ] _denis_100 Скачать
1 | 0
Фильмы 2014 [DVDrip, WEB-DLRip, HDrip] [ 1.37 GB ] Париж: Город мёртвых / As Above So Below [2014 HDRip ] Ворон Скачать
1 | 0
Фильмы 2014 [DVDrip, WEB-DLRip, HDrip] [ 1.45 GB ] Париж: Город мёртвых / As Above So Below [2014 BDRip - [ ] Ворон Скачать
1 | 0
Фильмы (Blu-ray, BD-Remux, HDDVD) [ 25.82 GB ] Париж: Город мёртвых / As Above So Below [2014 BDRemux 1080p] DUB AVO [Есарев] Ворон Скачать
1 | 0
Фильмы (Blu-ray, BD-Remux, HDDVD) [ 29.67 GB ] Париж: Город мёртвых / As Above So Below [2014 Blu-ray ] Wollishofen Скачать
1 | 1
Фильмы [HD 720p, 1080p] (Хороший звук DUB, MVO) [ 14.73 GB ] Париж: Город мёртвых / As Above So Below [2014 BDRip 1080p] 2xDub + AVO + Original + Sub Seedtank Скачать
1 | 0

28-11-2019 20:33  

Отключить всю рекламу на сайте

02-05-2015 19:25 Париж: Город мёртвых Скачать торрент  

норм. фильм. очко сыграло)))piratbit.pw



02-05-2015 19:28 Париж: Город мёртвых Скачать торрент  

Фильм классный,советую)piratbit.pw



    Дорогой пользователь! Огромная просьба, поблагодарите релизера, оцените раздачу и оставьте свои комментарий, если Вы скачали Париж: Город мёртвых через торрент бесплатно! Внесите свою лепту в развитие PiratBit!
    Комментировать посты могут только пользователи прошедшие не сложную регистрацию
    Показать сообщения:    

    Париж: Город мёртвых через торрент
    Скачать бесплатно Париж: Город мёртвых
    Париж: Город мёртвых скачать торрент
    Париж: Город мёртвых смотреть онлайн
    Cкачать фильм Париж: Город мёртвых бесплатно
    Париж: Город мёртвых скачать торрент в хорошем качестве
    Париж: Город мёртвых смотреть онлайн бесплатно в хорошем качестве


    Вы не можете начинать темы
    Вы не можете отвечать на сообщения
    Вы не можете редактировать свои сообщения
    Вы не можете удалять свои сообщения
    Вы не можете голосовать в опросах
    Вы не можете прикреплять файлы к сообщениям
    Вы можете скачивать файлы