Ссылка на приватное зеркало нашего сайта всего за 1$. Внимание количество ограничено!!!

2 сезон

iTunes

1 сезон

1

iTunes

iTunes

iTunes

1 сезон

RePack

30

ИГРА 18+

pack

ВАЖНО

!!Акция!!

Alien_RageХит недели

RePack

MK11
pack

Забери бонус

RePack

jed

!!Акция!!

Alien_Rage

RePack

fifa19

RePack

Assassins Creed: Odyssey

RePack

NEED FOR SPEED™ PAYBACK

4 сезон

9 сезон

Бесстыжие 9 сезон

Все сериалы

все сериалы на PB.wtf

RePack

FAR CRY 5
  

Мама дарагая! (Ярослав Чеважевский) [2014 г., комедия, WEB-DLRip] piratbit.pw

Мама дарагая! через торрент piratbit.pw

Размер: 700 MB | Добавлен: 5 лет 5 мес. назад | Торрент скачан:512 раз
Скачать  

02-05-2015 17:45 Мама дарагая! Скачать торрент  

Мама дарагая!
Год выпуска: 2014
Страна: Россия
Жанр: комедия
Продолжительность: 01:25:43

Режиссер: Ярослав Чеважевский



В ролях: Дмитрий Аверин, Нина Лощинина, Ксения Раппопорт, Марина Голуб, Игорь Яцко, Юрий Колокольников, Артур Ваха, Марина Рокина, Альберт Афонин, Юрий Симонов

Описание: Когда тебе двадцать два и ты живешь только по маминым правилам, самое время сказать: «С меня хватит!». Но Славику такое и в голову не придет, пока он не встретит девушку Женю. Теперь ему предстоит решать, чья любовь победит — ведь за попытку сорваться с крючка мама объявит войну.Как Славику вырасти и стать, наконец, мужчиной?! Как Жене вытащить парня из-под маминой юбки?! В этом помогут верные и опытные друзья с большим чувством юмора...

Качество: WEB-DLRip
Формат: AVI
Видео кодек: XviD
Аудио кодек: MP3
Видео: 640x352 (1.82:1), 25 fps, XviD build 50 ~1004 kbps avg, 0.18 bit/pixel
Аудио: 48 kHz, MPEG Layer 3, 2 ch, ~128.00 kbps avg
скриншот   скриншот   скриншот   скриншот   скриншот   скриншот   скриншот   скриншот   скриншот   скриншот  

Общее
Полное имя : F:\кино\Мама дарагая!.2014.WEB-DLRip.avi
Формат : AVI
Формат/Информация : Audio Video Interleave
Размер файла : 700 Мбайт
Продолжительность : 1 ч. 25 м.
Общий поток : 1143 Кбит/сек
Программа кодирования : VirtualDubMod 1.5.10.3 | www.virtualdub-fr.org || (build 2550/release)
Библиотека кодирования : VirtualDubMod build 2550/release

Видео
Идентификатор : 0
Формат : MPEG-4 Visual
Профиль формата : Advanced Simple@L5
Параметр BVOP формата : 2
Параметр QPel формата : Нет
Параметр GMC формата : Без точки перехода
Параметр матрицы формата : Default (H.263)
Идентификатор кодека : XVID
Идентификатор кодека/Подсказка : XviD
Продолжительность : 1 ч. 25 м.
Битрейт : 1005 Кбит/сек
Ширина : 640 пикселей
Высота : 352 пикселя
Соотношение сторон : 16:9
Частота кадров : 25,000 кадров/сек
Цветовое пространство : YUV
Субдискретизация насыщенности : 4:2:0
Битовая глубина : 8 бит
Тип развёртки : Прогрессивная
Метод сжатия : С потерями
Бит/(Пиксели*Кадры) : 0.178
Размер потока : 616 Мбайт (88%)
Библиотека кодирования : XviD 1.2.1 (UTC 2008-12-04)

Аудио
Идентификатор : 1
Формат : MPEG Audio
Версия формата : Version 1
Профиль формата : Layer 3
Режим : Joint stereo
Расширение режима : MS Stereo
Идентификатор кодека : 55
Идентификатор кодека/Подсказка : MP3
Продолжительность : 1 ч. 25 м.
Вид битрейта : Постоянный
Битрейт : 128 Кбит/сек
Каналы : 2 канала
Частота : 48,0 КГц
Метод сжатия : С потерями
Размер потока : 78,5 Мбайт (11%)
Выравнивание : Соединение по промежуткам
Продолжительность промежутка : 40 мс. (1,00 видеокадр)
Время предзагрузки промежутка : 504 мс.
Библиотека кодирования : LAME3.99r
Настройки программы : -m j -V 4 -q 2 -lowpass 17 -b 128

piratbit.pw



Скачать Мама дарагая! через торрент http://pic1.kartinco.top/images/10/wmv24.jpg Скачать фильм Мама дарагая! через торрент бесплантно в хорошем качестве Описание: Когда тебе двадцать два и ты живешь только по маминым правилам, самое время сказать: «С меня хватит!». Но Славику такое и в ... 8.1 10 15
Торрент: Зарегистрирован [2015-05-02 17:45] · скачан: 512 раз
Статус: √ проверено
Размер: 700 MB
Как cкачать? Как скачать Мама дарагая! через торрент | qTorrent

% Раздел Тема Автор DL S | L
Наши новые фильмы 2014 [ 1.46 GB ] Мама дарагая! [2014 WEB-DLRip] Ворон Скачать
1 | 0
Наши фильмы (HD, WEB-DL 720p, 1080p) [ 3.34 GB ] Мама дарагая! [2014 WEB-DL 1080p] Ворон Скачать
1 | 0

28-11-2019 20:33  

Отключить всю рекламу на сайте

    Дорогой пользователь! Огромная просьба, поблагодарите релизера, оцените раздачу и оставьте свои комментарий, если Вы скачали Мама дарагая! через торрент бесплатно! Внесите свою лепту в развитие PiratBit!
    Комментировать посты могут только пользователи прошедшие не сложную регистрацию
    Показать сообщения:    

    Мама дарагая! через торрент
    Скачать бесплатно Мама дарагая!
    Мама дарагая! скачать торрент
    Мама дарагая! смотреть онлайн
    Cкачать фильм Мама дарагая! бесплатно
    Мама дарагая! скачать торрент в хорошем качестве
    Мама дарагая! смотреть онлайн бесплатно в хорошем качестве


    Вы не можете начинать темы
    Вы не можете отвечать на сообщения
    Вы не можете редактировать свои сообщения
    Вы не можете удалять свои сообщения
    Вы не можете голосовать в опросах
    Вы не можете прикреплять файлы к сообщениям
    Вы можете скачивать файлы