Ссылка на приватное зеркало нашего сайта всего за 1$. Внимание количество ограничено!!!

2 сезон

iTunes

1 сезон

1

iTunes

iTunes

iTunes

1 сезон

RePack

30

ИГРА 18+

pack

ВАЖНО

!!Акция!!

Alien_RageХит недели

RePack

MK11
pack

Забери бонус

RePack

jed

!!Акция!!

Alien_Rage

RePack

fifa19

RePack

Assassins Creed: Odyssey

RePack

NEED FOR SPEED™ PAYBACK

4 сезон

9 сезон

Бесстыжие 9 сезон

Все сериалы

все сериалы на PB.wtf

RePack

FAR CRY 5
  

Пациенты (Элла Омельченко ) [2014, драма, комедия, WEB-DLRip] piratbit.pw

Пациенты через торрент piratbit.pw

Размер: 1.37 GB | Добавлен: 5 лет 1 мес. назад | Торрент скачан:350 раз
Скачать  

02-05-2015 10:33 Пациенты Скачать торрент  


Пациенты
«Ты же хочешь стать счастливым?»

ИНФОРМАЦИЯ:
Год выпуска:2014
Страна: Россия
Жанр: драма, комедия
Продолжительность: 01:26:56
Перевод: Не требуется
Режиссер: Элла Омельченко

В Ролях:


Павел Баршак (Шаламов), Тимофей Трибунцев (Брюсов), Марьяна Кирсанова (Леночка), Дмитрий Мухамадеев (отец Сергий)

ОПИСАНИЕ:
Сергей посещает психоаналитика Брюсова, который на каждом сеансе внушает ему мысль о разводе со своей супругой. «Семья - это не главное! Главное - чего хочешь ты!» По мнению Брюсова жена подавляет в нем собственное «ЭГО». Леночка же, супруга Сергея, ходит на исповедь к священнику, отцу Сергию. Батюшка, в отличие от психоаналитика, наказывает Леночке, во что бы то ни стало сохранить семью. «Семья - это главное! Всё ради семьи!» Это противостояние психоаналитика и священника длится уже полтора года. Кто же победит?


ТЕХ.ДАННЫЕ:
Качество: WEB-DLRip
Формат: AVI
Видео кодек: XviD
Аудио кодек: AC3
Видео: XviD, 720x400 (16:9), 1860 kbps, 25 fps, 0,246 bpp
Аудио: AC3 / 5.1 / 48 kHz / 384 kbps / 16 bit



Код:

General
Complete name                            : D:\Торенты\Pacienty.2014.O.WEB-DLRip.ELEKTRI4KA.uniongang.tv.avi
Format                                   : AVI
Format/Info                              : Audio Video Interleave
File size                                : 1.37 GiB
Duration                                 : 1h 26mn
Overall bit rate                         : 2 255 Kbps
Movie name                               : Pacienty.2014.O.WEB-DLRip.ELEKTRI4KA.uniongang.tv
Writing application                      : VirtualDubMod 1.5.10.3 | www.virtualdub-fr.org || (build 2550/release)
Copyright                                : UNIONGANG&RUSTORRENTS

Video
ID                                       : 0
Format                                   : MPEG-4 Visual
Format profile                           : Advanced Simple@L5
Format settings, BVOP                    : 2
Format settings, QPel                    : No
Format settings, GMC                     : No warppoints
Format settings, Matrix                  : Default (MPEG)
Muxing mode                              : Packed bitstream
Codec ID                                 : XVID
Codec ID/Hint                            : XviD
Duration                                 : 1h 26mn
Bit rate                                 : 1860 Kbps
Width                                    : 720 pixels
Height                                   : 400 pixels
Display aspect ratio                     : 16:9
Frame rate                               : 25.000 fps
Color space                              : YUV
Chroma subsampling                       : 4:2:0
Bit depth                                : 8 bits
Scan type                                : Progressive
Compression mode                         : Lossy
Bits/(Pixel*Frame)                       : 0.246
Stream size                              : 1.08 GiB (79%)
Writing library                          : XviD 73

Audio
ID                                       : 1
Format                                   : AC-3
Format/Info                              : Audio Coding 3
Mode extension                           : CM (complete main)
Codec ID                                 : 2000
Duration                                 : 1h 26mn
Bit rate mode                            : Constant
Bit rate                                 : 384 Kbps
Channel(s)                               : 6 channels
Channel positions                        : Front: L C R, Side: L R, LFE
Sampling rate                            : 48.0 KHz
Bit depth                                : 16 bits
Compression mode                         : Lossy
Stream size                              : 239 MiB (17%)
Alignment                                : Split accross interleaves

Скриншоты:


© Оформление by Ворон
piratbit.pw



Скачать Пациенты через торрент http://pic.kartinco.top/images/6/ordi9.jpg Скачать фильм Пациенты через торрент бесплантно в хорошем качестве Е:Сергей посещает психоаналитика Брюсова, который на каждом сеансе внушает ему мысль о разводе со своей супругой. «Семья - это не главное! ... 10 10 20
Торрент: Зарегистрирован [2015-09-08 21:21] · скачан: 350 раз
Статус: √ проверено
Размер: 1.37 GB
Как cкачать? Как скачать Пациенты через торрент | qTorrent

% Раздел Тема Автор DL S | L
Фильмы 2014 [DVDrip, WEB-DLRip, HDrip] [ 1.42 GB ] Вирус: Нулевой пациент / Cabin Fever: Patient Zero [2014 BDRip] MVO Twi7ter Скачать
4 | 0
Фильмы 2014 [DVDrip, WEB-DLRip, HDrip] [ 742 MB ] Вирус: Нулевой пациент / Cabin Fever: Patient Zero [2014 HDRip] MVO bober100 Скачать
1 | 0
Фильмы 2014 [DVDrip, WEB-DLRip, HDrip] [ 1.46 GB ] Вирус: Нулевой пациент / Cabin Fever: Patient Zero [2014 HDRip] MVO bober100 Скачать
1 | 0
Фильмы [HD 720p, 1080p] (Хороший звук DUB, MVO) [ 9.25 GB ] Вирус: Нулевой пациент / Cabin Fever: Patient Zero [2014 BDRip 1080p] MVO bober100 Скачать
2 | 0
Фильмы [HD 720p, 1080p] (Хороший звук DUB, MVO) [ 4.32 GB ] Вирус: Нулевой пациент / Cabin Fever: Patient Zero [2014 BDRip 720p] MVO bober100 Скачать
4 | 0
Наши сериалы [ 2.75 GB ] Идеальный пациент / Серии: 1-2 из 2 [2020 Мело HDTVRip-AVC] bober100 Скачать
2 | 0
Наши сериалы [ 2.26 GB ] Идеальный пациент / Серии: 1-2 из 2 [2020 Мело HDTVRip] bober100 Скачать
1 | 0


Последний раз редактировалось: Ворон (2015-09-08 21:21), всего редактировалось 1 раз

28-11-2019 20:33  

Отключить всю рекламу на сайте

03-05-2015 18:33 Пациенты Скачать торрент  

ах, как мне понравился этот фильм! ) "лыба" не сходила с лица на протяжении всего фильма. обязательно буду его пересматривать и не один раз. спасибо )piratbit.pw



08-09-2015 21:17 Пациенты Скачать торрент  

351 раз скачан, а второй день нет ни одного раздающего.piratbit.pw



08-09-2015 21:21 Пациенты Скачать торрент  

Alexandr7 писал(а):

Пациенты

Это за 4 месяца. Ну такие у нас люди, скачал и удалил файл.
Обновил ТФ можете качать, сиды есть. Перекачайте.piratbit.pw



    Дорогой пользователь! Огромная просьба, поблагодарите релизера, оцените раздачу и оставьте свои комментарий, если Вы скачали Пациенты через торрент бесплатно! Внесите свою лепту в развитие PiratBit!
    Комментировать посты могут только пользователи прошедшие не сложную регистрацию
    Показать сообщения:    

    Пациенты через торрент
    Скачать бесплатно Пациенты
    Пациенты скачать торрент
    Пациенты смотреть онлайн
    Cкачать фильм Пациенты бесплатно
    Пациенты скачать торрент в хорошем качестве
    Пациенты смотреть онлайн бесплатно в хорошем качестве


    Вы не можете начинать темы
    Вы не можете отвечать на сообщения
    Вы не можете редактировать свои сообщения
    Вы не можете удалять свои сообщения
    Вы не можете голосовать в опросах
    Вы не можете прикреплять файлы к сообщениям
    Вы можете скачивать файлы