2 сезон

iTunes

1 сезон

1

iTunes

iTunes

iTunes

1 сезон

RePack

30

ИГРА 18+

pack

ВАЖНО

!!Акция!!

Alien_RageХит недели

RePack

MK11
pack

Забери бонус

RePack

jed

!!Акция!!

Alien_Rage

RePack

fifa19

RePack

Assassins Creed: Odyssey

RePack

NEED FOR SPEED™ PAYBACK

4 сезон

9 сезон

Бесстыжие 9 сезон

Все сериалы

все сериалы на PB.wtf

RePack

FAR CRY 5
  

Мама дарагая! (Ярослав Чеважевский ) [2014, комедия, WEB-DLRip] piratbit.pw

Мама дарагая! через торрент piratbit.pw

Размер: 1.46 GB | Добавлен: 5 лет 5 мес. назад | Торрент скачан:977 раз
Скачать  

02-05-2015 08:50 Мама дарагая! Скачать торрент  


Мама дарагая!
«Чья любовь победит?»

ИНФОРМАЦИЯ:
Год выпуска:2014
Страна: Россия
Жанр: комедия
Продолжительность: 01:25:43
Перевод: Не требуется
Режиссер: Ярослав Чеважевский

В Ролях:


Дмитрий Аверин (Славик), Нина Лощинина (Женя), Ксения Раппопорт (Галина, мама Славика), Марина Голуб (Люся, подруга Галины), Игорь Яцко (друг Славика), Юрий Колокольников (друг Славика), Артур Ваха, Марина Рокина, Альберт Афонин (олигарх), Юрий Симонов (старичок), Беата Маковская (директриса), Ляля Миропольская (регистратор свадьбы Зои)

ОПИСАНИЕ:
Когда тебе двадцать два и ты живешь только по маминым правилам, самое время сказать: «С меня хватит!». Но Славику такое и в голову не придет, пока он не встретит девушку Женю. Теперь ему предстоит решать, чья любовь победит - ведь за попытку сорваться с крючка мама объявит войну.
Как Славику вырасти и стать, наконец, мужчиной?! Как Жене вытащить парня из-под маминой юбки?! В этом помогут верные и опытные друзья с большим чувством юмора...


ТЕХ.ДАННЫЕ:
Качество: WEB-DLRip
Формат: AVI
Видео кодек: XviD
Аудио кодек: AC3
Видео: XviD, 720x400 (16:9), 2040 kbps, 25 fps, 0,270 bpp
Аудио: AC3 / 5.1 / 48 kHz / 384 kbps / 16 bit



Код:

General
Complete name                            : D:\Торенты\Mama.Daragay.2014.O.WEB-DLRip.UNIONGANG.ELEKTRI4KA.avi
Format                                   : AVI
Format/Info                              : Audio Video Interleave
File size                                : 1.46 GiB
Duration                                 : 1h 25mn
Overall bit rate                         : 2 434 Kbps
Movie name                               : Mama.Daragay.2014.O.WEB-DLRip.ELEKTRI4KA.uniongang.tv
Writing application                      : VirtualDubMod 1.5.10.3 | www.virtualdub-fr.org || (build 2550/release)
Copyright                                : UNIONGANG&RUSTORRENTS

Video
ID                                       : 0
Format                                   : MPEG-4 Visual
Format profile                           : Advanced Simple@L5
Format settings, BVOP                    : 2
Format settings, QPel                    : No
Format settings, GMC                     : No warppoints
Format settings, Matrix                  : Default (MPEG)
Muxing mode                              : Packed bitstream
Codec ID                                 : XVID
Codec ID/Hint                            : XviD
Duration                                 : 1h 25mn
Bit rate                                 : 2040 Kbps
Width                                    : 720 pixels
Height                                   : 400 pixels
Display aspect ratio                     : 16:9
Frame rate                               : 25.000 fps
Color space                              : YUV
Chroma subsampling                       : 4:2:0
Bit depth                                : 8 bits
Scan type                                : Progressive
Compression mode                         : Lossy
Bits/(Pixel*Frame)                       : 0.270
Stream size                              : 1.16 GiB (80%)
Writing library                          : XviD 73

Audio
ID                                       : 1
Format                                   : AC-3
Format/Info                              : Audio Coding 3
Mode extension                           : CM (complete main)
Codec ID                                 : 2000
Duration                                 : 1h 25mn
Bit rate mode                            : Constant
Bit rate                                 : 384 Kbps
Channel(s)                               : 6 channels
Channel positions                        : Front: L C R, Side: L R, LFE
Sampling rate                            : 48.0 KHz
Bit depth                                : 16 bits
Compression mode                         : Lossy
Stream size                              : 235 MiB (16%)
Alignment                                : Split accross interleaves

Скриншоты:


© Оформление by Ворон
piratbit.pw



Скачать Мама дарагая! через торрент http://pic.kartinco.top/images/6/ordi9.jpg Скачать фильм Мама дарагая! через торрент бесплантно в хорошем качестве Е:Когда тебе двадцать два и ты живешь только по маминым правилам, самое время сказать: «С меня хватит!». Но Славику такое и в голову не ... 9.1 10 30
Торрент: Зарегистрирован [2015-05-02 08:50] · скачан: 977 раз
Статус: √ проверено
Размер: 1.46 GB
Как cкачать? Как скачать Мама дарагая! через торрент | qTorrent

% Раздел Тема Автор DL S | L
Наши новые фильмы 2014 [ 700 MB ] Мама дарагая! [2014 WEB-DLRip] coc900 Скачать
1 | 0
Наши фильмы (HD, WEB-DL 720p, 1080p) [ 3.34 GB ] Мама дарагая! [2014 WEB-DL 1080p] Ворон Скачать
1 | 0

28-11-2019 20:33  

Отключить всю рекламу на сайте

02-05-2015 21:30 Мама дарагая! Скачать торрент  

даже не знаю кому может понравится сие "произведение"piratbit.pw



04-05-2015 08:18 Мама дарагая! Скачать торрент  

Это полный писец ! Великий бред !piratbit.pw



    Дорогой пользователь! Огромная просьба, поблагодарите релизера, оцените раздачу и оставьте свои комментарий, если Вы скачали Мама дарагая! через торрент бесплатно! Внесите свою лепту в развитие PiratBit!
    Комментировать посты могут только пользователи прошедшие не сложную регистрацию
    Показать сообщения:    

    Мама дарагая! через торрент
    Скачать бесплатно Мама дарагая!
    Мама дарагая! скачать торрент
    Мама дарагая! смотреть онлайн
    Cкачать фильм Мама дарагая! бесплатно
    Мама дарагая! скачать торрент в хорошем качестве
    Мама дарагая! смотреть онлайн бесплатно в хорошем качестве


    Вы не можете начинать темы
    Вы не можете отвечать на сообщения
    Вы не можете редактировать свои сообщения
    Вы не можете удалять свои сообщения
    Вы не можете голосовать в опросах
    Вы не можете прикреплять файлы к сообщениям
    Вы можете скачивать файлы