Ссылка на приватное зеркало всего за 1$. Внимание количество ограничено!!!

OK

1+1

iTunes

мы

OK

1

WEB-DLRip

Джокер

Пифагор

Ведьмак / The Witcher сериал

Лицензия

ПШазам

ОК

Оно 2

iTunes

30
pack

Вам бонус

ВАЖНО

!!Акция!!

Alien_RageХит недели

RePack

Resident Evil 21

ИГРА 18+

pack

RePack

jed

!!Акция!!

Alien_Rage

RePack

fifa19

RePack

Assassins Creed: Odyssey

RePack

NEED FOR SPEED™ PAYBACK

4 сезон

9 сезон

Бесстыжие 9 сезон

Все сериалы

все сериалы на PB.wtf

RePack

FAR CRY 5
  

Одинок по контракту (Евгений Матвиенко) [2014, Украина, комедия, мелодрама, WEBRip) piratbit.pw

Одинок по контракту через торрент piratbit.pw

Размер: 1.37 GB | Добавлен: 4 года 8 мес. назад | Торрент скачан:426 раз
Скачать  

25-10-2014 02:38 Одинок по контракту Скачать торрент  

Одинок по контракту
«Лучший фильм для свиданий...»


  • Год выпуска: 2014
  • Страна: Украина
  • Жанр: комедия, мелодрама
  • Продолжительность: 01:38:59
  • Перевод: Не требуется

  • Режиссер: Евгений Матвиенко
  • В ролях:

    Ольга Лерман, Вацлав Верхол, Ольга Тумайкина, Сергей Перегудов, Андрей Саминин, Валерий Созановский, Александр Дулин, Наоми Вульф, Василий Вирастюк, Алан Бадоев, Сергей Пархоменко, Анна Адамович

  • Описание:
    Фильм расскажет историю молодой восходящей звезды Славы Лебедева, фронтмена рок-группы «Сердце города», и юной Лили Фиалко, которая влюбляется в Славу, не подозревая о его популярности. Проблема заключается в том, что по контракту Славе нельзя не только жениться, но и встречаться с девушкой, чтобы не разрушить свой сценический образ и не лишиться любви фанаток.
  • Рейтинг:



  • Качество: WEBRip
  • Формат: :AVI
  • Видео кодек: XviD
  • Аудио кодек: AC3
  • Видео: 720x400 (16:9), 1775 kbps, 25 fps, 0,247 bpp
  • Аудио: 2.0 / 48 kHz / 192 kbps / 16 bit
  • Релиз от: GEKADOL

    Код:

    General
    Complete name                            : I:\Od1nok.po.K0ntraktU.2014.O.WEBRip.1400Mb.avi
    Format                                   : AVI
    Format/Info                              : Audio Video Interleave
    File size                                : 1.37 GiB
    Duration                                 : 1h 38mn
    Overall bit rate                         : 1 977 Kbps
    Writing application                      : VirtualDubMod 1.5.10.2 (build 2540/release)
    Writing library                          : VirtualDubMod build 2540/release

    Video
    ID                                       : 0
    Format                                   : MPEG-4 Visual
    Format profile                           : Advanced Simple@L5
    Format settings, BVOP                    : 2
    Format settings, QPel                    : No
    Format settings, GMC                     : No warppoints
    Format settings, Matrix                  : Default (MPEG)
    Codec ID                                 : XVID
    Codec ID/Hint                            : XviD
    Duration                                 : 1h 38mn
    Bit rate                                 : 1 776 Kbps
    Width                                    : 720 pixels
    Height                                   : 400 pixels
    Display aspect ratio                     : 16:9
    Frame rate                               : 25.000 fps
    Color space                              : YUV
    Chroma subsampling                       : 4:2:0
    Bit depth                                : 8 bits
    Scan type                                : Progressive
    Compression mode                         : Lossy
    Bits/(Pixel*Frame)                       : 0.247
    Stream size                              : 1.23 GiB (90%)
    Writing library                          : XviD 1.2.1 (UTC 2008-12-04)

    Audio
    ID                                       : 1
    Format                                   : AC-3
    Format/Info                              : Audio Coding 3
    Mode extension                           : CM (complete main)
    Codec ID                                 : 2000
    Duration                                 : 1h 38mn
    Bit rate mode                            : Constant
    Bit rate                                 : 192 Kbps
    Channel(s)                               : 2 channels
    Channel positions                        : Front: L R
    Sampling rate                            : 48.0 KHz
    Bit depth                                : 16 bits
    Compression mode                         : Lossy
    Stream size                              : 136 MiB (10%)
    Alignment                                : Split accross interleaves
    Interleave, duration                     : 40 ms (1.00 video frame)
    Interleave, preload duration             : 500 ms


    Скриншоты:



    piratbit.pw



  • Скачать Одинок по контракту через торрент http://i63.fastpic.ru/big/2014/1025/1b/36337d363904830df73e9239dc52991b.jpg Скачать фильм Одинок по контракту через торрент бесплантно в хорошем качестве Описание: Фильм расскажет историю молодой восходящей звезды Славы Лебедева, фронтмена рок-группы «Сердце города», и юной Лили Фиалко, ... 7 10 32
    Торрент: Зарегистрирован [2015-04-25 18:47] · скачан: 426 раз
    Статус: √ проверено
    Размер: 1.37 GB
    Как cкачать? Как скачать Одинок по контракту через торрент | qTorrent

    28-11-2019 20:33  

    Отключить всю рекламу на сайте

    26-10-2014 05:24 Одинок по контракту Скачать торрент  

    точная копия "Фанатки не остаются на завтрак"piratbit.pw



    26-04-2015 12:15 Одинок по контракту Скачать торрент  

    Namik_L писал(а):

    точная копия "Фанатки не остаются на завтрак"

    Тобишь копипаста? Полная или что-то внесли своё?piratbit.pw



    27-04-2015 06:22 Одинок по контракту Скачать торрент  

    "Наши новые фильмы" ???piratbit.pw



    04-05-2015 21:38 Одинок по контракту Скачать торрент  

    а с хера ли украинская студия упала в наши фильмы?piratbit.pw



      Дорогой пользователь! Огромная просьба, поблагодарите релизера, оцените раздачу и оставьте свои комментарий, если Вы скачали Одинок по контракту через торрент бесплатно! Внесите свою лепту в развитие PiratBit!
      Комментировать посты могут только пользователи прошедшие не сложную регистрацию
      Показать сообщения:    

      Одинок по контракту через торрент
      Скачать бесплатно Одинок по контракту
      Одинок по контракту скачать торрент
      Одинок по контракту смотреть онлайн
      Cкачать фильм Одинок по контракту бесплатно
      Одинок по контракту скачать торрент в хорошем качестве
      Одинок по контракту смотреть онлайн бесплатно в хорошем качестве


      Вы не можете начинать темы
      Вы не можете отвечать на сообщения
      Вы не можете редактировать свои сообщения
      Вы не можете удалять свои сообщения
      Вы не можете голосовать в опросах
      Вы не можете прикреплять файлы к сообщениям
      Вы можете скачивать файлы