Ссылка на приватное зеркало нашего сайта всего за 1$. Внимание количество ограничено!!!

2 сезон

iTunes

1 сезон

1

iTunes

iTunes

iTunes

1 сезон

RePack

30

ИГРА 18+

pack

ВАЖНО

!!Акция!!

Alien_RageХит недели

RePack

MK11
pack

Забери бонус

RePack

jed

!!Акция!!

Alien_Rage

RePack

fifa19

RePack

Assassins Creed: Odyssey

RePack

NEED FOR SPEED™ PAYBACK

4 сезон

9 сезон

Бесстыжие 9 сезон

Все сериалы

все сериалы на PB.wtf

RePack

FAR CRY 5
  

Ч/Б (Евгений Шелякин) [2014, Россия, комедия, криминал, фантастика, WEB-DLRip-AVC,] Оригинал [iTunes] От R.G. PiratFilms piratbit.pw

Ч через торрент piratbit.pw

Размер: 1.42 GB | Добавлен: 5 лет 5 мес. назад | Торрент скачан:444 раза
Скачать  

24-04-2015 15:07 Ч Скачать торрент  




Ч/Б
«Ангелам закон не писан»


Год выпуска: 2014
Страна: Россия
Жанр: комедия, криминал, фантастика
Продолжительность: 01:29:04
Перевод: Оригинал [iTunes]
Субтитры: Нет
Режиссер: Евгений Шелякин
В ролях:

Алексей Чадов (Ярослав), Мераб Нинидзе (Нурик), Сергей Маковецкий (Алхан), Гурам Баблишвили (Элиханов), Бесо Гатаев (Гусейн), Кахи Кавсадзе (дедушка Магомед), Екатерина Редникова (Тамара), Мария Андреева (Вика), Мария Звонарева (Галина), Андрей Руденский (Глеб), Сергей Годин (Юра), Руслан Ягудин (Леша)
Описание:
Наши дни. Опасного авторитета-интеллектуала Алхана одновременно решают ограбить обманутый им Ярослав и мелкий жулик Нурик. По случайности во время их столкновения Нурик погибает, но возвращается в мир с миссией: быть ангелом-хранителем Ярослава. Вот только Ярослав при этом страдает «аллергией на Кавказ». Мистическим образом скованные вместе, эти двое вынуждены искать общий язык и спасаться от жаждущего расправы Алхана с его подручными.
    Качество: WEB-DLRip-AVC (исх.WEB-DLRip 1080р)
    Формат: MKV
    Видео кодек: AVC
    Аудио кодек:AC3
    Видео: AVC, 1024x426 (2.40:1), 1902 kbps, 25 fps, 0,174 bpp
    Аудио: русский / AC3 / 5.1 / 48 kHz / 384 kbps / 16 bit ||


Код:

---[Information] [24.04.2015 13:24:19] x264 [info]: frame I:954   Avg QP:13.86  size: 79477  PSNR Mean Y:49.07 U:53.42 V:53.48 Avg:49.99 Global:49.52
---[Information] [24.04.2015 13:24:19] x264 [info]: frame P:33164 Avg QP:16.81  size: 20655  PSNR Mean Y:46.08 U:52.43 V:52.38 Avg:47.17 Global:46.65
---[Information] [24.04.2015 13:24:19] x264 [info]: frame B:99495 Avg QP:19.97  size:  5108  PSNR Mean Y:45.36 U:51.96 V:51.93 Avg:46.55 Global:45.81
---[Information] [24.04.2015 13:24:19] x264 [info]: consecutive B-frames:  1.3%  3.4%  3.5% 73.6%  4.5%  8.7%  1.1%  2.7%  0.2%  0.3%  0.6%

Код:

Общее
Уникальный идентификатор                 : 245799823595109574728755237022801451153 (0xB8EB52F582ACE216A120DDF5D56DD891)
Полное имя                               : D:\рипы От R.G. PiratFilms\4.B.2014.WEB DLRip-AVC.by.White Smoke.R.G.PiratFilms.mkv
Формат                                   : Matroska
Версия формата                           : Version 4 / Version 2
Размер файла                             : 1,42 Гбайт
Продолжительность                        : 1 ч. 29 м.
Общий поток                              : 2285 Кбит/сек
Дата кодирования                         : UTC 2015-04-24 14:38:42
Программа кодирования                    : mkvmerge v7.6.0 ('Garden of Dreams') 64bit built on Feb  8 2015 13:04:34
Библиотека кодирования                   : libebml v1.3.1 + libmatroska v1.4.2
_STATISTICS_WRITING_APP                  : mkvmerge v7.6.0 ('Garden of Dreams') 64bit built on Feb  8 2015 13:04:34
_STATISTICS_WRITING_DATE_UTC             : 2015-04-24 14:38:42
_STATISTICS_TAGS                         : BPS DURATION NUMBER_OF_FRAMES NUMBER_OF_BYTES
DURATION                                 : 01:29:04.544000000
NUMBER_OF_FRAMES                         : 167017
NUMBER_OF_BYTES                          : 256538112

Видео
Идентификатор                            : 1
Формат                                   : AVC
Формат/Информация                        : Advanced Video Codec
Профиль формата                          : High@L4.1
Параметр CABAC формата                   : Да
Параметр ReFrames формата                : 12 кадров
Идентификатор кодека                     : V_MPEG4/ISO/AVC
Продолжительность                        : 1 ч. 29 м.
Битрейт                                  : 1902 Кбит/сек
Ширина                                   : 1024 пикселя
Высота                                   : 426 пикселей
Соотношение сторон                       : 2,40:1
Режим частоты кадров                     : Постоянный
Частота кадров                           : 25,000 кадров/сек
Цветовое пространство                    : YUV
Субдискретизация насыщенности            : 4:2:0
Битовая глубина                          : 8 бит
Тип развёртки                            : Прогрессивная
Бит/(Пиксели*Кадры)                      : 0.174
Размер потока                            : 1,15 Гбайт (81%)
Библиотека кодирования                   : x264 core 146 r2538 121396c
Настройки программы                      : cabac=1 / ref=12 / deblock=1:-3:-3 / analyse=0x3:0x113 / me=umh / subme=9 / psy=1 / psy_rd=1.00:0.00 / mixed_ref=1 / me_range=32 / chroma_me=1 / trellis=1 / 8x8dct=1 / cqm=0 / deadzone=21,11 / fast_pskip=1 / chroma_qp_offset=-2 / threads=6 / lookahead_threads=1 / sliced_threads=0 / nr=0 / decimate=1 / interlaced=0 / bluray_compat=0 / constrained_intra=0 / bframes=10 / b_pyramid=2 / b_adapt=2 / b_bias=10 / direct=1 / weightb=0 / open_gop=0 / weightp=2 / keyint=250 / keyint_min=25 / scenecut=40 / intra_refresh=0 / rc_lookahead=40 / rc=2pass / mbtree=1 / bitrate=1902 / ratetol=1.0 / qcomp=0.65 / qpmin=0 / qpmax=69 / qpstep=4 / cplxblur=20.0 / qblur=0.5 / ip_ratio=1.40 / aq=1:1.00
Язык                                     : English
Default                                  : Да
Forced                                   : Нет
DURATION                                 : 01:29:04.520000000
NUMBER_OF_FRAMES                         : 133613
NUMBER_OF_BYTES                          : 1268999860
_STATISTICS_WRITING_APP                  : mkvmerge v7.6.0 ('Garden of Dreams') 64bit built on Feb  8 2015 13:04:34
_STATISTICS_WRITING_DATE_UTC             : 2015-04-24 14:38:42
_STATISTICS_TAGS                         : BPS DURATION NUMBER_OF_FRAMES NUMBER_OF_BYTES

Аудио
Идентификатор                            : 2
Формат                                   : AC-3
Формат/Информация                        : Audio Coding 3
Расширение режима                        : CM (complete main)
Параметр Endianness формата              : Big
Идентификатор кодека                     : A_AC3
Продолжительность                        : 1 ч. 29 м.
Вид битрейта                             : Постоянный
Битрейт                                  : 384 Кбит/сек
Каналы                                   : 6 каналов
Расположение каналов                     : Front: L C R, Side: L R, LFE
Частота                                  : 48,0 КГц
Битовая глубина                          : 16 бит
Метод сжатия                             : С потерями
Размер потока                            : 245 Мбайт (17%)
Язык                                     : Russian
Default                                  : Да
Forced                                   : Нет


Скриншоты:
piratbit.pw



Скачать Ч через торрент http://i5.imageban.ru/out/2015/01/28/01859fe8d4e21166f16a4c733dadb0aa.gif Скачать фильм Ччерез торрент бесплантно в хорошем качестве Описание: Наши дни. Опасного авторитета-интеллектуала Алхана одновременно решают ограбить обманутый им Ярослав и мелкий жулик Нурик. По ... 9.1 10 22
Info! Золотая раздача, скачанное не засчитывается.
Торрент: Зарегистрирован [2015-04-24 15:07] · скачан: 444 раз
Статус: √ проверено
Размер: 1.42 GB
Как cкачать? Как скачать Ч через торрент | qTorrent

28-11-2019 20:33  

Отключить всю рекламу на сайте

25-04-2015 13:41 Ч Скачать торрент  

че за авно очередное? уже иммунитет вырабатывается к фильмам из РФ. ну сделайте кто нибудь отзыв что это что то что можно посмотретьpiratbit.pw



28-06-2015 20:34 Ч Скачать торрент  

KoreshKhv писал(а):

че за авно очередное? уже иммунитет вырабатывается к фильмам из РФ. ну сделайте кто нибудь отзыв что это что то что можно посмотреть

Вам здесь никто ничего не должен.
Кинопоиск в помощь.piratbit.pw



05-01-2016 09:57 Ч Скачать торрент  

Вполне хороший фильм. Есть и смешные и серьёзные моменты в нём. В принципе как и должна была показываться русская трагикомедия. 10/10piratbit.pw



    Дорогой пользователь! Огромная просьба, поблагодарите релизера, оцените раздачу и оставьте свои комментарий, если Вы скачали Ч через торрент бесплатно! Внесите свою лепту в развитие PiratBit!
    Комментировать посты могут только пользователи прошедшие не сложную регистрацию
    Показать сообщения:    

    Ч через торрент
    Скачать бесплатно Ч
    Ч скачать торрент
    Ч смотреть онлайн
    Cкачать фильм Ч бесплатно
    Ч скачать торрент в хорошем качестве
    Ч смотреть онлайн бесплатно в хорошем качестве


    Вы не можете начинать темы
    Вы не можете отвечать на сообщения
    Вы не можете редактировать свои сообщения
    Вы не можете удалять свои сообщения
    Вы не можете голосовать в опросах
    Вы не можете прикреплять файлы к сообщениям
    Вы можете скачивать файлы