Ссылка на приватное зеркало нашего сайта всего за 1$. Внимание количество ограничено!!!

2 сезон

iTunes

1 сезон

1

iTunes

iTunes

iTunes

1 сезон

RePack

30

ИГРА 18+

pack

ВАЖНО

!!Акция!!

Alien_RageХит недели

RePack

MK11
pack

Забери бонус

RePack

jed

!!Акция!!

Alien_Rage

RePack

fifa19

RePack

Assassins Creed: Odyssey

RePack

NEED FOR SPEED™ PAYBACK

4 сезон

9 сезон

Бесстыжие 9 сезон

Все сериалы

все сериалы на PB.wtf

RePack

FAR CRY 5
  

Ч/Б (Евгений Шелякин) [2014, Россия, комедия, криминал, фантастика, WEB-DLRip,[ Оригинал [iTunes] piratbit.pw

Ч через торрент piratbit.pw

Размер: 1.37 GB | Добавлен: 5 лет 6 мес. назад | Торрент скачан:3630 раз
Скачать  

24-04-2015 01:29 Ч Скачать торрент  

Ч/Б
«Ангелам закон не писан»


Год выпуска: 2014
Страна: Россия
Жанр: комедия, криминал, фантастика
Продолжительность: 01:29:04
Перевод: Оригинал [iTunes]
Субтитры: Нет
Режиссер: Евгений Шелякин
В ролях:

Алексей Чадов (Ярослав), Мераб Нинидзе (Нурик), Сергей Маковецкий (Алхан), Гурам Баблишвили (Элиханов), Бесо Гатаев (Гусейн), Кахи Кавсадзе (дедушка Магомед), Екатерина Редникова (Тамара), Мария Андреева (Вика), Мария Звонарева (Галина), Андрей Руденский (Глеб), Сергей Годин (Юра), Руслан Ягудин (Леша)
Описание:
Наши дни. Опасного авторитета-интеллектуала Алхана одновременно решают ограбить обманутый им Ярослав и мелкий жулик Нурик. По случайности во время их столкновения Нурик погибает, но возвращается в мир с миссией: быть ангелом-хранителем Ярослава. Вот только Ярослав при этом страдает «аллергией на Кавказ». Мистическим образом скованные вместе, эти двое вынуждены искать общий язык и спасаться от жаждущего расправы Алхана с его подручными.
    Качество: WEB-DLRip
    Формат: AVI
    Видео кодек: XviD
    Аудио кодек:AC3
    Видео: XviD, 720x304 (2.35:1), 1802 kbps, 25 fps, 0,329 bpp
    Аудио: AC3 / 5.1 / 48 kHz / 384 kbps / 16 bit


Код:

General
Complete name                            : D:\Games\4.B.2015.O.WEB-DLRip.1400MB.avi
Format                                   : AVI
Format/Info                              : Audio Video Interleave
File size                                : 1.37 GiB
Duration                                 : 1h 29mn
Overall bit rate                         : 2 197 Kbps
Writing application                      : VirtualDubMod 1.5.10.3 | www.virtualdub-fr.org || (build 2550/release)
Writing library                          : VirtualDubMod build 2550/release

Video
ID                                       : 0
Format                                   : MPEG-4 Visual
Format profile                           : Advanced Simple@L5
Format settings, BVOP                    : 2
Format settings, QPel                    : No
Format settings, GMC                     : No warppoints
Format settings, Matrix                  : Default (MPEG)
Codec ID                                 : XVID
Codec ID/Hint                            : XviD
Duration                                 : 1h 29mn
Bit rate                                 : 1 803 Kbps
Width                                    : 720 pixels
Height                                   : 304 pixels
Display aspect ratio                     : 2.35:1
Frame rate                               : 25.000 fps
Color space                              : YUV
Chroma subsampling                       : 4:2:0
Bit depth                                : 8 bits
Scan type                                : Progressive
Compression mode                         : Lossy
Bits/(Pixel*Frame)                       : 0.329
Stream size                              : 1.12 GiB (82%)
Writing library                          : XviD 1.2.1 (UTC 2008-12-04)

Audio
ID                                       : 1
Format                                   : AC-3
Format/Info                              : Audio Coding 3
Mode extension                           : CM (complete main)
Codec ID                                 : 2000
Duration                                 : 1h 29mn
Bit rate mode                            : Constant
Bit rate                                 : 384 Kbps
Channel(s)                               : 6 channels
Channel positions                        : Front: L C R, Side: L R, LFE
Sampling rate                            : 48.0 KHz
Bit depth                                : 16 bits
Compression mode                         : Lossy
Stream size                              : 245 MiB (17%)
Alignment                                : Split accross interleaves
Interleave, duration                     : 40 ms (1.00 video frame)
Interleave, preload duration             : 500 ms


Скриншоты:
piratbit.pw



Скачать Ч через торрент http://i5.imageban.ru/out/2015/04/24/9fdb16d13e9ac41aeddebf282879e59a.jpg Скачать фильм Ччерез торрент бесплантно в хорошем качестве Описание: Наши дни. Опасного авторитета-интеллектуала Алхана одновременно решают ограбить обманутый им Ярослав и мелкий жулик Нурик. По ... 9.2 10 68
Info! Золотая раздача, скачанное не засчитывается.
Торрент: Зарегистрирован [2015-04-24 01:29] · скачан: 3 630 раз
Статус: √ проверено
Размер: 1.37 GB
Как cкачать? Как скачать Ч через торрент | qTorrent

% Раздел Тема Автор DL S | L
Отечественный Рэп, Хип-Хоп [ 54 MB ] Барбитурный - Ч/б 2016 / MP3 / 320 kbps / Рэп bober100 Скачать
1 | 0
Наши новые фильмы 2014 [ 1.42 GB ] Ч/Б [2014 Россия WEB-DLRip-AVC] Оригинал От R.G. PiratFilms White Smoke Скачать
1 | 0
T Наши фильмы (HD, WEB-DL 720p, 1080p) [ 3 GB ] Ч/Б [2014 Россия WEB-DL 1080p] Оригинал White Smoke Скачать
1 | 0

28-11-2019 20:33  

Отключить всю рекламу на сайте

28-04-2015 05:44 Ч Скачать торрент  

Хороший фильм.Спасибо.piratbit.pw



28-04-2015 17:47 Ч Скачать торрент  

Любителям сериалов типа "реальных пацанов". Где смысыл жанра основан на..."ты пернул, нет я не пердел"piratbit.pw



30-04-2015 17:30 Ч Скачать торрент  

Нормальный фильм, посмотреть можно...piratbit.pw



01-05-2015 17:58 Ч Скачать торрент  

Достойный фильм, побольше бы таких)piratbit.pw



02-05-2015 19:43 Ч Скачать торрент  

опять одни и теже рожи!piratbit.pw



03-05-2015 07:37 Ч Скачать торрент  

Хватило на 20 минут просмотра, муть.piratbit.pw



04-05-2015 08:15 Ч Скачать торрент  

Дрянь редкая :cansored:piratbit.pw



05-05-2015 14:08 Ч Скачать торрент  

ну что же,прочитал отзывы,теперь заценимpiratbit.pw



10-05-2015 04:56 Ч Скачать торрент  

20 минут посмотрел и больше не смог, 3из10piratbit.pw



10-05-2015 18:54 Ч Скачать торрент  

Глянуть можноpiratbit.pw



    Дорогой пользователь! Огромная просьба, поблагодарите релизера, оцените раздачу и оставьте свои комментарий, если Вы скачали Ч через торрент бесплатно! Внесите свою лепту в развитие PiratBit!
    Комментировать посты могут только пользователи прошедшие не сложную регистрацию
    Показать сообщения:    

    Ч через торрент
    Скачать бесплатно Ч
    Ч скачать торрент
    Ч смотреть онлайн
    Cкачать фильм Ч бесплатно
    Ч скачать торрент в хорошем качестве
    Ч смотреть онлайн бесплатно в хорошем качестве


    Вы не можете начинать темы
    Вы не можете отвечать на сообщения
    Вы не можете редактировать свои сообщения
    Вы не можете удалять свои сообщения
    Вы не можете голосовать в опросах
    Вы не можете прикреплять файлы к сообщениям
    Вы можете скачивать файлы