1 сезон

3 сезон

iTunes

1

iTunes

DUB Netflix

iTunes

13

1 сезон

RePack

30

Deluxe

pack

Легкие деньги

ВАЖНО

ИГРА 18+

pack

RePack

MK11

RePack

jed

RePack

fifa19

RePack

RDR2

RePack

NEED FOR SPEED™ PAYBACK

4 сезон

9 сезон

Бесстыжие 9 сезон

Все сериалы

все сериалы на PB.wtf

RePack

FAR CRY 5

Anonymous, доброе утро, мы не успеваем до 1 числа собрать деньги на оплату серверов, помогите нам пожалуйста в это трудное время. В качестве благодарности мы отключим Вам всю рекламу на сайте (укажите свой ник в строку Ваше имя)!

×
  
Magnet ссылка

Давайте поохотимся / Let Us Prey (Брайан О’Мэлли / Brian O'Malley) [2014, Великобритания, Ирландия, ужасы, HDRip, Любительский (двухголосый)[den904, DeadSno] + ENG piratbit.pw

Давайте поохотимся через торрент piratbit.pw

Размер: 1.38 GB | Добавлен: 6 лет 1 мес. назад | Торрент скачан:263 раза
Скачать  

22-04-2015 09:19 Давайте поохотимся Скачать торрент  

Давайте поохотимся / Let Us Prey


  • Год выпуска: 2014
  • Страна: Великобритания, Ирландия
  • Жанр: ужасы
  • Продолжительность: 01:32:26
  • Перевод: Любительский (двухголосый)[den904, DeadSno]

  • Режиссер: Брайан О’Мэлли / Brian O'Malley
  • В ролях:

    Лиам Каннингэм (Six), Поллианна МакИнтош (PC. Rachel Heggie), Брайан Ларкин (PC. Jack Warnock), Ханна Стэнбридж (PC. Jennifer Mundie), Дуглас Расселл (Sgt. MacReady), Ниал Грег Фултон (Dr. Duncan Hume), Джонатан Уотсон (Ralph Beswick), Брайан Вернел (Caesar Sargison), Джеймс МакКриди (Mulvey), Sophie Stephanie Farmer (Young Rachel), Andrew Parker (Young Man)

  • Описание:
    Загадочный незнакомец, которого задерживают в удаленном полицейском участке, постепенно овладевает умами заключенных и сотрудников участка.
  • Рейтинг:



  • Качество: HDRip
  • Формат: :AVI
  • Видео кодек: XviD
  • Аудио кодек: AC3
  • Видео: 720x288 (2.500), 1661 kbps, 24 fps, 0,334 bpp
  • Аудио №1: Русский 2.0 / 48 kHz / 192 kbps / 16 bit
  • Аудио №2: Английский 2.0 / 48 kHz / 192 kbps / 16 bit
  • Релиз от: GEKADOL

    Код:

    General
    Complete name                            : D:\Фильмы\Let.Us.Prey.2014.L2.HDRip.1400Mb.avi
    Format                                   : AVI
    Format/Info                              : Audio Video Interleave
    File size                                : 1.38 GiB
    Duration                                 : 1h 32mn
    Overall bit rate                         : 2 141 Kbps
    Writing application                      : VirtualDubMod 1.5.10.2 (build 2540/release)
    Writing library                          : VirtualDubMod build 2540/release

    Video
    ID                                       : 0
    Format                                   : MPEG-4 Visual
    Format profile                           : Advanced Simple@L5
    Format settings, BVOP                    : 2
    Format settings, QPel                    : No
    Format settings, GMC                     : No warppoints
    Format settings, Matrix                  : Default (MPEG)
    Codec ID                                 : XVID
    Codec ID/Hint                            : XviD
    Duration                                 : 1h 32mn
    Bit rate                                 : 1 661 Kbps
    Width                                    : 720 pixels
    Height                                   : 288 pixels
    Display aspect ratio                     : 2.500
    Frame rate                               : 24.000 fps
    Color space                              : YUV
    Chroma subsampling                       : 4:2:0
    Bit depth                                : 8 bits
    Scan type                                : Progressive
    Compression mode                         : Lossy
    Bits/(Pixel*Frame)                       : 0.334
    Stream size                              : 1.07 GiB (78%)
    Writing library                          : XviD 1.2.1 (UTC 2008-12-04)

    Audio #1
    ID                                       : 1
    Format                                   : AC-3
    Format/Info                              : Audio Coding 3
    Mode extension                           : CM (complete main)
    Codec ID                                 : 2000
    Duration                                 : 1h 32mn
    Bit rate mode                            : Constant
    Bit rate                                 : 192 Kbps
    Channel(s)                               : 2 channels
    Channel positions                        : Front: L R
    Sampling rate                            : 48.0 KHz
    Bit depth                                : 16 bits
    Compression mode                         : Lossy
    Stream size                              : 127 MiB (9%)
    Alignment                                : Split accross interleaves

    Audio #2
    ID                                       : 2
    Format                                   : AC-3
    Format/Info                              : Audio Coding 3
    Mode extension                           : CM (complete main)
    Codec ID                                 : 2000
    Duration                                 : 1h 32mn
    Bit rate mode                            : Constant
    Bit rate                                 : 192 Kbps
    Channel(s)                               : 2 channels
    Channel positions                        : Front: L R
    Sampling rate                            : 48.0 KHz
    Bit depth                                : 16 bits
    Compression mode                         : Lossy
    Stream size                              : 127 MiB (9%)
    Alignment                                : Split accross interleaves




    Скриншоты:


    piratbit.pw



  • Скачать Давайте поохотимся через торрент http://i47.fastpic.ru/big/2015/0422/73/98da8800b24766f1ebedccf76ac43473.jpg Скачать фильм Давайте поохотимся через торрент бесплантно в хорошем качестве Описание: Загадочный незнакомец, которого задерживают в удаленном полицейском участке, постепенно овладевает умами заключенных и ... 8.5 10 6
    Торрент: Зарегистрирован [2015-04-22 09:19] · скачан: 263 раз
    Статус: T временная
    Размер: 1.38 GB
    Как cкачать? Как скачать Давайте поохотимся через торрент | UTorrent

    % Раздел Тема Автор DL S | L
    T Фильмы [HD 720p, 1080p] (Звук Cam, VO, DVO) [ 4.49 GB ] Давайте поохотимся / Let Us Prey [2014 Ирландия BDRip 720p Любительский [den904 DeadSno] + ENG GEKADOL Скачать
    1 | 0

    28-11-2019 20:33  

    Отключить всю рекламу на сайте

    24-04-2015 16:29 Давайте поохотимся Скачать торрент  

    Кто-нибудь смотрел? ка фильмец?piratbit.pw



      Дорогой пользователь! Огромная просьба, поблагодарите релизера, оцените раздачу и оставьте свои комментарий, если Вы скачали Давайте поохотимся через торрент бесплатно! Внесите свою лепту в развитие PiratBit!
      Комментировать посты могут только пользователи прошедшие не сложную регистрацию
      Показать сообщения:    

      Давайте поохотимся через торрент
      Скачать бесплатно Давайте поохотимся
      Давайте поохотимся скачать торрент
      Давайте поохотимся смотреть онлайн
      Cкачать фильм Давайте поохотимся бесплатно
      Давайте поохотимся скачать торрент в хорошем качестве
      Давайте поохотимся смотреть онлайн бесплатно в хорошем качестве


      Вы не можете начинать темы
      Вы не можете отвечать на сообщения
      Вы не можете редактировать свои сообщения
      Вы не можете удалять свои сообщения
      Вы не можете голосовать в опросах
      Вы не можете прикреплять файлы к сообщениям
      Вы можете скачивать файлы