1 сезон

1 сезон

iTunes

1

КиноПоиск HD

Кинопоиск HD

iTunes

13

1 сезон

RePack

30

Ultimate

ВАЖНО

ИГРА 18+

pack

RePack

MK11
pack

Легкие деньги

RePack

jed

RePack

fifa19

RePack

RDR2

RePack

NEED FOR SPEED™ PAYBACK

4 сезон

9 сезон

Бесстыжие 9 сезон

Все сериалы

все сериалы на PB.wtf

RePack

FAR CRY 5
  
Magnet ссылка

Таинство / The Sacrament (Тай Уэст) [2013 г., ужасы, триллер, HDRip, Авторский одноголосый "Д. Есарев"] piratbit.pw

Таинство через торрент piratbit.pw

Размер: 2.04 GB | Добавлен: 6 лет назад | Торрент скачан:48 раз
Скачать  

17-04-2015 18:04 Таинство Скачать торрент  

Таинство / The Sacrament
Год выпуска: 2013
Страна: США / Worldview Entertainment, Arcade Pictures
Жанр: ужасы, триллер
Продолжительность: 01:39:08
Перевод: Авторский одноголосый (Д. Есарев)

Режиссер: Тай Уэст

IMDB 6.10 (5347)


В ролях: Кейт Лин Шейл, Эми Саймец, Джо Сванберг, Эй Джей Боуэн, Джин Джонс, Эндрю Неннингер, Шоун Парсонс, Донна Биско, Дерек Робертс, Мэдисон Эбшер

Описание: Два журналиста едут к родственнику одного из них, который проживает в отдаленной коммуне, жители которой подчиняются таинственному отцу. Не сложно догадаться, что для героев ничем хорошим эта поездка не закончится...

Качество: HDRip
Формат: AVI
Видео кодек: XviD
Аудио кодек: AC3
Видео: 720x400 (1.80:1), 23.976 fps, XviD build 50 ~2495 kbps avg, 0.36 bit/pixel
Аудио: 48 kHz, AC3 Dolby Digital, 3/2 (L,C,R,l,r) + LFE ch, ~448 kbps


Общее
Полное имя : F:\кино\Таинство.2013.HDRip.avi
Формат : AVI
Формат/Информация : Audio Video Interleave
Профиль формата : OpenDML
Размер файла : 2,04 Гбайт
Продолжительность : 1 ч. 39 м.
Общий поток : 2950 Кбит/сек
Программа кодирования : VirtualDubMod 1.5.10.3 | (build 2550/release)
Библиотека кодирования : VirtualDubMod build 2550/release

Видео
Идентификатор : 0
Формат : MPEG-4 Visual
Профиль формата : Advanced Simple@L5
Параметр BVOP формата : 2
Параметр QPel формата : Нет
Параметр GMC формата : Без точки перехода
Параметр матрицы формата : Default (H.263)
Идентификатор кодека : XVID
Идентификатор кодека/Подсказка : XviD
Продолжительность : 1 ч. 39 м.
Битрейт : 2490 Кбит/сек
Ширина : 720 пикселей
Высота : 400 пикселей
Соотношение сторон : 16:9
Частота кадров : 23,976 кадра/сек
Цветовое пространство : YUV
Субдискретизация насыщенности : 4:2:0
Битовая глубина : 8 бит
Тип развёртки : Прогрессивная
Метод сжатия : С потерями
Бит/(Пиксели*Кадры) : 0.361
Размер потока : 1,72 Гбайт (84%)
Библиотека кодирования : XviD 1.2.1 (UTC 2008-12-04)

Аудио
Идентификатор : 1
Формат : AC-3
Формат/Информация : Audio Coding 3
Расширение режима : CM (complete main)
Параметр Endianness формата : Big
Идентификатор кодека : 2000
Продолжительность : 1 ч. 39 м.
Вид битрейта : Постоянный
Битрейт : 448 Кбит/сек
Каналы : 6 каналов
Расположение каналов : Front: L C R, Side: L R, LFE
Частота : 48,0 КГц
Битовая глубина : 16 бит
Метод сжатия : С потерями
Размер потока : 318 Мбайт (15%)
Выравнивание : Разделение по промежуткам
Продолжительность промежутка : 42 мс. (1,00 видеокадр)
Время предзагрузки промежутка : 500 мс.

piratbit.pw



Скачать Таинство через торрент https://pic1.kartinco.top/images/10/1noft.jpg Скачать фильм Таинство через торрент бесплантно в хорошем качестве Описание: Два журналиста едут к родственнику одного из них, который проживает в отдаленной коммуне, жители которой подчиняются ... 5.5 10 2
Торрент: Зарегистрирован [2015-04-17 18:04] · скачан: 48 раз
Статус: √ проверено
Размер: 2.04 GB
Как cкачать? Как скачать Таинство через торрент | UTorrent

% Раздел Тема Автор DL S | L
T Фильмы 2013 (Звук TS, Cam, VO, DVO) [ 1.32 GB ] Таинство / The Sacrament [2013 HDRip Любительский [datynet] GEKADOL Скачать
1 | 0

28-11-2019 20:33  

Отключить всю рекламу на сайте

17-04-2015 22:02 Таинство Скачать торрент  

Раздающему спасибо. Зачетный фильм в данном жанре. Но я бы его назвал "тупой и еще тупее 3. " Не попытаться спасти людей а прятаться под нарами это жесть. Те кто посмотрят меня поймут. Не взять у бедной матери ножи из рук, зарезать при входе автоматчика, а мило наблюдать как она режет горло малышке. В кадрах видно что на земле лежит труп охранника с АК и не поднять. При этом продолжать хлюпать соплями и дальше пузом чистить территорию. Возможно было спасти хотя пару человек. Но видимо данные выжившие репортеры яйца оставили дома....piratbit.pw



    Дорогой пользователь! Огромная просьба, поблагодарите релизера, оцените раздачу и оставьте свои комментарий, если Вы скачали Таинство через торрент бесплатно! Внесите свою лепту в развитие PiratBit!
    Комментировать посты могут только пользователи прошедшие не сложную регистрацию
    Показать сообщения:    

    Таинство через торрент
    Скачать бесплатно Таинство
    Таинство скачать торрент
    Таинство смотреть онлайн
    Cкачать фильм Таинство бесплатно
    Таинство скачать торрент в хорошем качестве
    Таинство смотреть онлайн бесплатно в хорошем качестве


    Вы не можете начинать темы
    Вы не можете отвечать на сообщения
    Вы не можете редактировать свои сообщения
    Вы не можете удалять свои сообщения
    Вы не можете голосовать в опросах
    Вы не можете прикреплять файлы к сообщениям
    Вы можете скачивать файлы