1 сезон

3 сезон

iTunes

1

iTunes

DUB Netflix

iTunes

13

1 сезон

RePack

30

Deluxe

pack

Легкие деньги

ВАЖНО

ИГРА 18+

pack

RePack

MK11

RePack

jed

RePack

fifa19

RePack

RDR2

RePack

NEED FOR SPEED™ PAYBACK

4 сезон

9 сезон

Бесстыжие 9 сезон

Все сериалы

все сериалы на PB.wtf

RePack

FAR CRY 5

Anonymous, доброе утро, мы не успеваем до 1 числа собрать деньги на оплату серверов, помогите нам пожалуйста в это трудное время. В качестве благодарности мы отключим Вам всю рекламу на сайте (укажите свой ник в строку Ваше имя)!

×
  
Magnet ссылка

Кат Бэнк / Cut Bank (Мэтт Шекман ) [2014, триллер, WEB-DLRip, Любительский (одноголосый)] piratbit.pw

Кат Бэнк через торрент piratbit.pw

Размер: 743 MB | Добавлен: 6 лет 2 мес. назад | Торрент скачан:158 раз
Скачать  

11-04-2015 09:54 Кат Бэнк Скачать торрент  

Кат Бэнк / Cut Bank

Год выпуска: 2014
Страна: США
Жанр: триллер
Продолжительность: 01:33:18
Перевод: Любительский (одноголосый)
Режиссер: Мэтт Шекман
В ролях: Билли Боб Торнтон, Лиам Хемсворт (Dwayne McLaren), Тереза Палмер (Cassandra), Джон Малкович (Sheriff Vogel), Майкл Стулбарг (Derby Milton), Брюс Дерн (Georgie Wits), Оливер Платт (Joe Barrett), Соня Саломяа (Gretchen), Эйден Лонгуорт (Mason), Пейтон Кеннеди (Rosie), Кристиан Дистефано (Wyatt), Чилтон Крэйн (Mrs. Steely)
Описание:
Дуэйн МакЛарен живет в городе Кат Бэнк, штат Монтана, работает в автомастерской, но в школе был звездой футбола. Поскольку городок буквально застрял во времени, Дуэйну очень хочется вырваться из него. Он предпринимает все возможное, чтобы покинуть Кат Бэнк, тем самым запуская череду событий, которые изменят не только его жизнь, но и сам город.
Рейтинг:

Качество: WEB-DLRip
Формат: AVI
Видео кодек: XviD
Аудио кодек: MP3
Видео: XviD, 640x264 (2.40:1), 975 kbps, 23,976 fps, 0,241 bpp
Аудио: MP3 / 2.0 / 44 kHz / 128 kbps /

Код:

General
Complete name                            : C:\Users\Admin\Downloads\Cut.Bank.2014.L1.WEB-DLRip.745MB.avi
Format                                   : AVI
Format/Info                              : Audio Video Interleave
File size                                : 743 MiB
Duration                                 : 1h 33mn
Overall bit rate                         : 1 113 Kbps
Writing application                      : VirtualDubMod 1.5.10.3 | www.virtualdub-fr.org || (build 2550/release)
Writing library                          : VirtualDubMod build 2550/release

Video
ID                                       : 0
Format                                   : MPEG-4 Visual
Format profile                           : Advanced Simple@L5
Format settings, BVOP                    : 1
Format settings, QPel                    : No
Format settings, GMC                     : No warppoints
Format settings, Matrix                  : Custom
Codec ID                                 : XVID
Codec ID/Hint                            : XviD
Duration                                 : 1h 33mn
Bit rate                                 : 976 Kbps
Width                                    : 640 pixels
Height                                   : 264 pixels
Display aspect ratio                     : 2.40:1
Frame rate                               : 23.976 fps
Color space                              : YUV
Chroma subsampling                       : 4:2:0
Bit depth                                : 8 bits
Scan type                                : Progressive
Compression mode                         : Lossy
Bits/(Pixel*Frame)                       : 0.241
Stream size                              : 651 MiB (88%)
Writing library                          : XviD 73

Audio
ID                                       : 1
Format                                   : MPEG Audio
Format version                           : Version 1
Format profile                           : Layer 3
Codec ID                                 : 55
Codec ID/Hint                            : MP3
Duration                                 : 1h 33mn
Bit rate mode                            : Constant
Bit rate                                 : 128 Kbps
Channel(s)                               : 2 channels
Sampling rate                            : 44.1 KHz
Compression mode                         : Lossy
Stream size                              : 85.4 MiB (11%)
Alignment                                : Split accross interleaves
Interleave, duration                     : 42 ms (1.00 video frame)
Interleave, preload duration             : 500 ms
Writing library                          : LAME3.99r
Encoding settings                        : -m s -V 4 -q 2 -lowpass 17 -b 128

piratbit.pw



Скачать Кат Бэнк через торрент http://i55.fastpic.ru/big/2015/0411/0f/1f14e3ca2adac5ced1c4438a5854c00f.jpg Скачать фильм Кат Бэнк через торрент бесплантно в хорошем качестве Описание: Дуэйн МакЛарен живет в городе Кат Бэнк, штат Монтана, работает в автомастерской, но в школе был звездой футбола. Поскольку ... 8.9 10 8
Торрент: Зарегистрирован [2015-04-11 09:54] · скачан: 158 раз
Статус: T временная
Размер: 743 MB
Как cкачать? Как скачать Кат Бэнк через торрент | UTorrent

% Раздел Тема Автор DL S | L
T Фильмы [HD 720p, 1080p] (Звук Cam, VO, DVO) [ 4.22 GB ] Кат Бэнк / Cut Bank [2014 BDRip 720p DVO] Ворон Скачать
1 | 0
T Фильмы 2014 (Звук TS, Cam, VO, DVO) [ 1.37 GB ] Кат Бэнк / Cut Bank [2014 HDRip DVO] Ворон Скачать
1 | 0
Фильмы без перевода [ 2.14 GB ] Кат Бэнк / Cut Bank [2014 WEB-DL 720p Субтитры Серёжк@ Скачать
1 | 0

28-11-2019 20:33  

Отключить всю рекламу на сайте

    Дорогой пользователь! Огромная просьба, поблагодарите релизера, оцените раздачу и оставьте свои комментарий, если Вы скачали Кат Бэнк через торрент бесплатно! Внесите свою лепту в развитие PiratBit!
    Комментировать посты могут только пользователи прошедшие не сложную регистрацию
    Показать сообщения:    

    Кат Бэнк через торрент
    Скачать бесплатно Кат Бэнк
    Кат Бэнк скачать торрент
    Кат Бэнк смотреть онлайн
    Cкачать фильм Кат Бэнк бесплатно
    Кат Бэнк скачать торрент в хорошем качестве
    Кат Бэнк смотреть онлайн бесплатно в хорошем качестве


    Вы не можете начинать темы
    Вы не можете отвечать на сообщения
    Вы не можете редактировать свои сообщения
    Вы не можете удалять свои сообщения
    Вы не можете голосовать в опросах
    Вы не можете прикреплять файлы к сообщениям
    Вы можете скачивать файлы