1 сезон

3 сезон

iTunes

1

iTunes

DUB Netflix

iTunes

13

1 сезон

RePack

30

Deluxe

pack

Легкие деньги

ВАЖНО

ИГРА 18+

pack

RePack

MK11

RePack

jed

RePack

fifa19

RePack

RDR2

RePack

NEED FOR SPEED™ PAYBACK

4 сезон

9 сезон

Бесстыжие 9 сезон

Все сериалы

все сериалы на PB.wtf

RePack

FAR CRY 5

Anonymous, добрый вечер, мы не успеваем до 1 числа собрать деньги на оплату серверов, помогите нам пожалуйста в это трудное время. В качестве благодарности мы отключим Вам всю рекламу на сайте (укажите свой ник в строку Ваше имя)!

×
  
Magnet ссылка

Цирюльник / The Barber (Basel Owies) [2014, США, триллер, HDRip) VO [Pashaup] piratbit.pw

Цирюльник через торрент piratbit.pw

Размер: 1.36 GB | Добавлен: 6 лет 2 мес. назад | Торрент скачан:291 раз
Скачать  

10-04-2015 10:28 Цирюльник Скачать торрент  

Цирюльник / The Barber
«A man's appearance is everything»


  • Год выпуска: 2014
  • Страна: США
  • Жанр: триллер
  • Продолжительность: 01:30:13
  • Перевод: Любительский (одноголосый) [Павел Морозов aka PashaUp]

  • Режиссер: Basel Owies
  • В ролях:

    Скотт Гленн (Eugene Van Wingerdt), Стивен Тоболовски (Chief Hardaway), Джессика Лу (Sandrine), Кристен Хагер (Audrey), Лидия Хёрст, Крис Кой (John McCormack), Оливия Тейлор Дадли (Kelli), Максимино Арсиньега (Luis), Тим Де Зарн (Capt. Phil Baroni), Табита Эллис (Girl In Coffin), Вэлори Хаббард (Grace), Justine Acciani (Judy Lynn)

  • Описание:
    В тихом маленьком городке живет обычный, ничем не примечательный старик. У него своя парикмахерская, он добропорядочный гражданин, его уважают и ценят окружающие. Но однажды его тихой и размеренной жизни приходит конец. Молодой человек, представившийся Джоном Лару, убежден, что парикмахер - никто иной, как серийный убийца, убивший 17 молодых женщин, закапывая их заживо.
  • Рейтинг:



  • Качество: HDRip
  • Формат: :AVI
  • Видео кодек: XviD
  • Аудио кодек: AC3
  • Видео: 720x304 (2.35:1), 1685 kbps, 23,976 fps, 0,321 bpp
  • Аудио: 5.1 / 48 kHz / 384 kbps / 16 bit
  • Релиз от: GEKADOL

    Код:

    General
    Complete name                            : D:\Фильмы\P4p1km4h3r.2014.L1.HDRip.1400MB.avi
    Format                                   : AVI
    Format/Info                              : Audio Video Interleave
    File size                                : 1.36 GiB
    Duration                                 : 1h 30mn
    Overall bit rate                         : 2 164 Kbps
    Writing application                      : VirtualDubMod 1.5.10.3 | www.virtualdub-fr.org || (build 2550/release)
    Writing library                          : VirtualDubMod build 2550/release

    Video
    ID                                       : 0
    Format                                   : MPEG-4 Visual
    Format profile                           : Advanced Simple@L5
    Format settings, BVOP                    : 2
    Format settings, QPel                    : No
    Format settings, GMC                     : No warppoints
    Format settings, Matrix                  : Default (MPEG)
    Codec ID                                 : XVID
    Codec ID/Hint                            : XviD
    Duration                                 : 1h 30mn
    Bit rate                                 : 1 686 Kbps
    Width                                    : 720 pixels
    Height                                   : 304 pixels
    Display aspect ratio                     : 2.35:1
    Frame rate                               : 23.976 fps
    Color space                              : YUV
    Chroma subsampling                       : 4:2:0
    Bit depth                                : 8 bits
    Scan type                                : Progressive
    Compression mode                         : Lossy
    Bits/(Pixel*Frame)                       : 0.321
    Stream size                              : 1.06 GiB (78%)
    Writing library                          : XviD 1.2.1 (UTC 2008-12-04)

    Audio
    ID                                       : 1
    Format                                   : AC-3
    Format/Info                              : Audio Coding 3
    Mode extension                           : CM (complete main)
    Codec ID                                 : 2000
    Duration                                 : 1h 30mn
    Bit rate mode                            : Constant
    Bit rate                                 : 384 Kbps
    Channel(s)                               : 6 channels
    Channel positions                        : Front: L C R, Side: L R, LFE
    Sampling rate                            : 48.0 KHz
    Bit depth                                : 16 bits
    Compression mode                         : Lossy
    Stream size                              : 248 MiB (18%)
    Alignment                                : Split accross interleaves




    Скриншоты:


    piratbit.pw



  • Скачать Цирюльник через торрент http://i5.imageban.ru/out/2015/04/10/7f1a4c1eaa759385b072d5f3570986dc.jpg Скачать фильм Цирюльник через торрент бесплантно в хорошем качестве Описание: В тихом маленьком городке живет обычный, ничем не примечательный старик. У него своя парикмахерская, он добропорядочный ... 9.4 10 8
    Торрент: Зарегистрирован [2015-04-10 10:28] · скачан: 291 раз
    Статус: T временная
    Размер: 1.36 GB
    Как cкачать? Как скачать Цирюльник через торрент | UTorrent

    28-11-2019 20:33  

    Отключить всю рекламу на сайте

    10-04-2015 19:40 Цирюльник Скачать торрент  

    Опасный дед наверно хто смотрел?piratbit.pw



    11-04-2015 17:48 Цирюльник Скачать торрент  

    Малобюджетное гуано.piratbit.pw



      Дорогой пользователь! Огромная просьба, поблагодарите релизера, оцените раздачу и оставьте свои комментарий, если Вы скачали Цирюльник через торрент бесплатно! Внесите свою лепту в развитие PiratBit!
      Комментировать посты могут только пользователи прошедшие не сложную регистрацию
      Показать сообщения:    

      Цирюльник через торрент
      Скачать бесплатно Цирюльник
      Цирюльник скачать торрент
      Цирюльник смотреть онлайн
      Cкачать фильм Цирюльник бесплатно
      Цирюльник скачать торрент в хорошем качестве
      Цирюльник смотреть онлайн бесплатно в хорошем качестве


      Вы не можете начинать темы
      Вы не можете отвечать на сообщения
      Вы не можете редактировать свои сообщения
      Вы не можете удалять свои сообщения
      Вы не можете голосовать в опросах
      Вы не можете прикреплять файлы к сообщениям
      Вы можете скачивать файлы