1 сезон

1 сезон

iTunes

1

КиноПоиск HD

Кинопоиск HD

iTunes

13

1 сезон

RePack

30

Новинка

ВАЖНО

ИГРА 18+

pack

RePack

MK11
pack

Легкие деньги

RePack

jed

RePack

fifa19

RePack

RDR2

RePack

NEED FOR SPEED™ PAYBACK

4 сезон

9 сезон

Бесстыжие 9 сезон

Все сериалы

все сериалы на PB.wtf

RePack

FAR CRY 5
  
Magnet ссылка

Воровка книг / The Book Thief (Брайан Персивал) [2013 г., драма, военный, HDRip, Авторский одноголосый " Ю.Сербин"] piratbit.pw

Воровка книг через торрент piratbit.pw

Размер: 2.12 GB | Добавлен: 6 лет назад | Торрент скачан:9 раз
Скачать  

09-04-2015 18:13 Воровка книг Скачать торрент  

Воровка книг / The Book Thief
Год выпуска: 2013
Страна: США, Германия / Fox 2000 Pictures, Sunswept Entertainment, TSG Entertainment
Жанр: драма, военный
Продолжительность: 02:10:59
Перевод: Авторский одноголосый (Ю.Сербин)

Режиссер: Брайан Персивал

IMDB 7.60 (79 201)


В ролях: Софи Нелисс, Джеффри Раш, Эмили Уотсон, Бен Шнетцер, Нико Лирш, Роджер Аллам, Барбара Ауэр, Карина Визе, Оливер Стоковски, Райнер Бок, Надежда Трунина, Виктор Костецкий, Лидия Мельникова, Глеб Гаврилов, Юрий Барашкин

Описание: Германия, канун Второй мировой войны. Смерть готовится начать свою жатву. Девятилетняя Лизель переезжает в Мюнхен к своим приемным родителям и с их помощью учится читать. С каждым днем чтение становится ее жизненной потребностью, и Лизель начинает воровать книги — единственную отраду ее жизни. Все, что она узнает из них, помогает ей понять события, происходящие вокруг нее — гонение на евреев, антифашистское движение, унижения и голод. Все это, в конце концов, сложится в ее собственную историю, историю ее жизни.

Качество: HDRip
Формат: AVI
Видео кодек: XviD
Аудио кодек: AC3
Видео: 720x304 (2.37:1), 23.976 fps, XviD build 50 ~1857 kbps avg, 0.35 bit/pixel
Аудио: 48 kHz, AC3 Dolby Digital, 3/2 (L,C,R,l,r) + LFE ch, ~448 kbps
скриншот   скриншот   скриншот   скриншот   скриншот   скриншот  

Общее
Полное имя : F:\кино\Воровка книг.2013.HDRip.avi
Формат : AVI
Формат/Информация : Audio Video Interleave
Профиль формата : OpenDML
Размер файла : 2,12 Гбайт
Продолжительность : 2 ч. 10 м.
Общий поток : 2312 Кбит/сек
Программа кодирования : VirtualDubMod 1.5.10.3 | www.virtualdub-fr.org || (build 2550/release)
Библиотека кодирования : VirtualDubMod build 2550/release

Видео
Идентификатор : 0
Формат : MPEG-4 Visual
Профиль формата : Advanced Simple@L5
Параметр BVOP формата : 2
Параметр QPel формата : Нет
Параметр GMC формата : Без точки перехода
Параметр матрицы формата : Default (H.263)
Идентификатор кодека : XVID
Идентификатор кодека/Подсказка : XviD
Продолжительность : 2 ч. 10 м.
Битрейт : 1852 Кбит/сек
Ширина : 720 пикселей
Высота : 304 пикселя
Соотношение сторон : 2,35:1
Частота кадров : 23,976 кадра/сек
Цветовое пространство : YUV
Субдискретизация насыщенности : 4:2:0
Битовая глубина : 8 бит
Тип развёртки : Прогрессивная
Метод сжатия : С потерями
Бит/(Пиксели*Кадры) : 0.353
Размер потока : 1,69 Гбайт (80%)
Библиотека кодирования : XviD 1.2.1 (UTC 2008-12-04)

Аудио
Идентификатор : 1
Формат : AC-3
Формат/Информация : Audio Coding 3
Расширение режима : CM (complete main)
Параметр Endianness формата : Big
Идентификатор кодека : 2000
Продолжительность : 2 ч. 10 м.
Вид битрейта : Постоянный
Битрейт : 448 Кбит/сек
Каналы : 6 каналов
Расположение каналов : Front: L C R, Side: L R, LFE
Частота : 48,0 КГц
Битовая глубина : 16 бит
Метод сжатия : С потерями
Размер потока : 420 Мбайт (19%)
Выравнивание : Разделение по промежуткам
Продолжительность промежутка : 42 мс. (1,00 видеокадр)
Время предзагрузки промежутка : 500 мс.

piratbit.pw



Скачать Воровка книг через торрент https://pic1.kartinco.top/images/10/1tk2k.jpg Скачать фильм Воровка книг через торрент бесплантно в хорошем качестве Описание: Германия, канун Второй мировой войны. Смерть готовится начать свою жатву. Девятилетняя Лизель переезжает в Мюнхен к своим ... 6.5 10 4
Торрент: Зарегистрирован [2015-04-09 18:13] · скачан: 9 раз
Статус: √ проверено
Размер: 2.12 GB
Как cкачать? Как скачать Воровка книг через торрент | UTorrent

% Раздел Тема Автор DL S | L
Фильмы [HD 720p, 1080p] (Хороший звук DUB, MVO) [ 4.43 GB ] Воровка книг / The Book Thief [2013 военный BDRip 1080p] 2x + [AVO] killermax2013 Скачать
10 | 3
Фильмы с украинским озвучиванием [ 1.95 GB ] Воровка книг / The Book Thief [2013 военный BDRip-AVC] [Ukr DUB] killermax2013 Скачать
1 | 0
Фильмы с авторской озвучкой [ 2.18 GB ] Воровка книг / The Book Thief [2013 военный BDRip] [AVO] killermax2013 Скачать
1 | 0
Фильмы 2013 [DVDrip, WEB-DLRip, HDrip] [ 2.96 GB ] Воровка книг / The Book Thief [2013 военный BDRip-AVC] DUB AVO msltel Скачать
1 | 0
Фильмы [HD 720p, 1080p] (Хороший звук DUB, MVO) [ 15.22 GB ] Воровка книг / The Book Thief [2013 военный BDRip 1080p] DUB AVO msltel Скачать
1 | 2
Фильмы [HD 720p, 1080p] (Хороший звук DUB, MVO) [ 4.77 GB ] Воровка книг / The Book Thief [2013 военный BDRip 720p] DUB AVO msltel Скачать
2 | 1
Фильмы [HD 720p, 1080p] (Хороший звук DUB, MVO) [ 5.84 GB ] Воровка книг / The Book Thief [2013 Германия военный BDRip 720p] + Original + Subs от R.G. PiratFilms Messa-fan Скачать
1 | 0

28-11-2019 20:33  

Отключить всю рекламу на сайте

09-04-2015 19:39 Воровка книг Скачать торрент  

coc900 писал(а):

В ролях: Надежда Трунина, Виктор Костецкий, Лидия Мельникова, Глеб Гаврилов, Юрий Барашкин

повнимательнейpiratbit.pw



09-04-2015 22:48 Воровка книг Скачать торрент  

А вещь-то сильная! Для тех, кто не разучился сопереживать и думать.piratbit.pw



10-04-2015 09:40 Воровка книг Скачать торрент  

Большинство нынешней молодёжи этот фильм не поймёт,
отбито баксами сопереживание и патриотизм...piratbit.pw



14-04-2015 08:35 Воровка книг Скачать торрент  

Большинство нынешней молодёжи этот фильм не поймёт,
отбито баксами сопереживание и патриотизм...

Значит, у будущих бабушек и дедушек есть возможность отыграться на внуках, воспитав в них способность к сопереживанию и патриотизм....piratbit.pw



    Дорогой пользователь! Огромная просьба, поблагодарите релизера, оцените раздачу и оставьте свои комментарий, если Вы скачали Воровка книг через торрент бесплатно! Внесите свою лепту в развитие PiratBit!
    Комментировать посты могут только пользователи прошедшие не сложную регистрацию
    Показать сообщения:    

    Воровка книг через торрент
    Скачать бесплатно Воровка книг
    Воровка книг скачать торрент
    Воровка книг смотреть онлайн
    Cкачать фильм Воровка книг бесплатно
    Воровка книг скачать торрент в хорошем качестве
    Воровка книг смотреть онлайн бесплатно в хорошем качестве


    Вы не можете начинать темы
    Вы не можете отвечать на сообщения
    Вы не можете редактировать свои сообщения
    Вы не можете удалять свои сообщения
    Вы не можете голосовать в опросах
    Вы не можете прикреплять файлы к сообщениям
    Вы можете скачивать файлы