1 сезон

1 сезон

iTunes

1

КиноПоиск HD

Кинопоиск HD

iTunes

13

1 сезон

RePack

30

Ultimate

ВАЖНО

ИГРА 18+

pack

RePack

MK11
pack

Легкие деньги

RePack

jed

RePack

fifa19

RePack

RDR2

RePack

NEED FOR SPEED™ PAYBACK

4 сезон

9 сезон

Бесстыжие 9 сезон

Все сериалы

все сериалы на PB.wtf

RePack

FAR CRY 5
  
Magnet ссылка

Исход: Цари и боги (Ридли Скотт) [2014 г., боевик, драма, приключения, HDRip, Авторский одноголосый "Д.Есарев"] piratbit.pw

Исход: Цари и боги через торрент piratbit.pw

Размер: 3.08 GB | Добавлен: 6 лет назад | Торрент скачан:25 раз
Скачать  

05-04-2015 17:15 Исход: Цари и боги Скачать торрент  

Исход: Цари и боги / Exodus: Gods and Kings
Год выпуска: 2014
Страна: Великобритания, США, Испания / Chernin Entertainment, Scott Free Productions, Babieka
Жанр: боевик, драма, приключения
Продолжительность: 02:30:20
Перевод: Авторский одноголосый (Д.Есарев)

Режиссер: Ридли Скотт

IMDB 6.10 (70 598)

В ролях: Кристиан Бэйл, Джоэл Эдгертон, Джон Туртурро, Аарон Пол, Бен Мендельсон, Мария Вальверде, Сигурни Уивер, Бен Кингсли, Хиам Аббасс, Исаак Эндрюс, Василий Дахненко, Владимир Рыбальченко, Валерий Сторожик, Антон Эльдаров, Никита Прозоровский

Описание: Ветхозаветная история о великом пророке Моисее и освобождении еврейского народа из египетского плена. Моисей появился на свет в те времена, когда фараон приказал убивать всех новорожденных мальчиков еврейского происхождения. Чтобы спасти его, мать положила малыша в корзину из тростника и отправила вниз по Нилу. Ребенка нашла дочь фараона, которая усыновила его и растила рядом с Рамсесом — будущим фараоном. Много лет спустя, став мужчиной, Моисей бежит из Египта, а затем возвращается туда по велению Господа, чтобы избавить свой народ от оков рабства...

Качество: HDRip
Формат: AVI
Видео кодек: XviD
Аудио кодек: AC3
Видео: 720x304 (2.37:1), 23.976 fps, XviD build 50 ~2480 kbps avg, 0.47 bit/pixel
Аудио: 48 kHz, AC3 Dolby Digital, 3/2 (L,C,R,l,r) + LFE ch, ~448 kbps

скриншот   скриншот   скриншот   скриншот   скриншот   скриншот  

Общее
Полное имя : F:\кино\Exodus.Gods.and.Kings.2014.A.HDRip.avi
Формат : AVI
Формат/Информация : Audio Video Interleave
Профиль формата : OpenDML
Размер файла : 3,08 Гбайт
Продолжительность : 2 ч. 30 м.
Общий поток : 2935 Кбит/сек
Название фильма : Exodus.Gods.and.Kings.2014.A.HDRip
Режиссёр : Rip by coc900
Жанр : Action/Drama
Программа кодирования : VirtualDubMod 1.5.10.3 | www.virtualdub-fr.org || (build 2550/release)
Формат оригинала/Имя : Movie
Примечание : аиторский перевод Д.Есарев

Видео
Идентификатор : 0
Формат : MPEG-4 Visual
Профиль формата : Advanced Simple@L5
Параметр BVOP формата : 2
Параметр QPel формата : Нет
Параметр GMC формата : Без точки перехода
Параметр матрицы формата : Default (H.263)
Идентификатор кодека : XVID
Идентификатор кодека/Подсказка : XviD
Продолжительность : 2 ч. 30 м.
Битрейт : 2477 Кбит/сек
Ширина : 720 пикселей
Высота : 304 пикселя
Соотношение сторон : 2,35:1
Частота кадров : 23,976 кадра/сек
Цветовое пространство : YUV
Субдискретизация насыщенности : 4:2:0
Битовая глубина : 8 бит
Тип развёртки : Прогрессивная
Метод сжатия : С потерями
Бит/(Пиксели*Кадры) : 0.472
Размер потока : 2,60 Гбайт (84%)
Библиотека кодирования : XviD 1.2.1 (UTC 2008-12-04)

Аудио
Идентификатор : 1
Формат : AC-3
Формат/Информация : Audio Coding 3
Расширение режима : CM (complete main)
Параметр Endianness формата : Big
Идентификатор кодека : 2000
Продолжительность : 2 ч. 30 м.
Вид битрейта : Постоянный
Битрейт : 448 Кбит/сек
Каналы : 6 каналов
Расположение каналов : Front: L C R, Side: L R, LFE
Частота : 48,0 КГц
Битовая глубина : 16 бит
Метод сжатия : С потерями
Размер потока : 482 Мбайт (15%)
Выравнивание : Разделение по промежуткам
Продолжительность промежутка : 42 мс. (1,00 видеокадр)
Время предзагрузки промежутка : 500 мс.
piratbit.pw



Скачать Исход: Цари и боги через торрент https://pic1.kartinco.top/images/10/v44ca.jpg Скачать фильм Исход: Цари и боги через торрент бесплантно в хорошем качестве Описание: Ветхозаветная история о великом пророке Моисее и освобождении еврейского народа из египетского плена. Моисей появился на свет в ... 9 10 4
Торрент: Зарегистрирован [2015-04-05 17:15] · скачан: 25 раз
Статус: √ проверено
Размер: 3.08 GB
Как cкачать? Как скачать Исход: Цари и боги через торрент | UTorrent

% Раздел Тема Автор DL S | L
3D Фильмы [ 22.02 GB ] Исход: Цари и боги [2014 BDrip 1080p] OverUnder / Вертикальная стереопара serega768 Скачать
1 | 0
Ultra HD (UHD: 2K, 4K, 8K) — видео сверхвысокой чёткости [ 38.42 GB ] Исход: Цари и боги / Exodus: Gods and Kings [2012 UHD BDRemux 2160p] - [] sheker187 Скачать
1 | 0
Фильмы [HD 720p, 1080p] (Хороший звук DUB, MVO) [ 20.78 GB ] Исход: Цари и боги [2014 BDRip 1080p] 2xDub + AVO + Original + Sub Seedtank Скачать
1 | 0
Фильмы 2014 [DVDrip, WEB-DLRip, HDrip] [ 1.45 GB ] Исход: Цари и боги [2014 WEB-DLRip - ] Ворон Скачать
1 | 0
Фильмы (BDRip, HDrip-AVC) (48-60 fps) [ 3.97 GB ] Исход: Цари и боги [2014 Испания BDRip-AVC 60fps ] от R.G. HD-Films Tiberiumsun69 Скачать
1 | 0
Фильмы (DVD фильмы) [ 7.19 GB ] Исход: цари и боги [2014 DVD9] R5 voovaz Скачать
1 | 0
Фильмы (Blu-ray, BD-Remux, HDDVD) [ 41 GB ] Исход: Цари и боги [2014 BD-Remux 2xDUB+AVO+Original] от R.G. HD-Films Seedtank Скачать
1 | 0

28-11-2019 20:33  

Отключить всю рекламу на сайте

05-04-2015 17:43 Исход: Цари и боги Скачать торрент  

makarevich что интересно проверяется хоть?piratbit.pw



05-04-2015 17:47 Исход: Цари и боги Скачать торрент  

coc900
просьба
сэмплы создавай минутные,
а то у тебя получаются огромные 50 - 60 МБpiratbit.pw



    Дорогой пользователь! Огромная просьба, поблагодарите релизера, оцените раздачу и оставьте свои комментарий, если Вы скачали Исход: Цари и боги через торрент бесплатно! Внесите свою лепту в развитие PiratBit!
    Комментировать посты могут только пользователи прошедшие не сложную регистрацию
    Показать сообщения:    

    Исход: Цари и боги через торрент
    Скачать бесплатно Исход: Цари и боги
    Исход: Цари и боги скачать торрент
    Исход: Цари и боги смотреть онлайн
    Cкачать фильм Исход: Цари и боги бесплатно
    Исход: Цари и боги скачать торрент в хорошем качестве
    Исход: Цари и боги смотреть онлайн бесплатно в хорошем качестве


    Вы не можете начинать темы
    Вы не можете отвечать на сообщения
    Вы не можете редактировать свои сообщения
    Вы не можете удалять свои сообщения
    Вы не можете голосовать в опросах
    Вы не можете прикреплять файлы к сообщениям
    Вы можете скачивать файлы