1 сезон

1 сезон

iTunes

1

КиноПоиск HD

Кинопоиск HD

iTunes

13

1 сезон

RePack

30

Новинка

ВАЖНО

ИГРА 18+

pack

RePack

MK11
pack

Легкие деньги

RePack

jed

RePack

fifa19

RePack

RDR2

RePack

NEED FOR SPEED™ PAYBACK

4 сезон

9 сезон

Бесстыжие 9 сезон

Все сериалы

все сериалы на PB.wtf

RePack

FAR CRY 5
  
Magnet ссылка

Геракл / Hercules (Бретт Рэтнер / Brett Ratner) [2014, боевик, приключения, BDRip] [Расширенная версия] [AVO] (А.Гаврилов) piratbit.pw

Геракл через торрент piratbit.pw

Размер: 1.46 GB | Добавлен: 6 лет назад | Торрент скачан:263 раза
Скачать  

02-04-2015 18:36 Геракл Скачать торрент  

Геракл / Hercules [Расширенная версия]
Год выпуска: 2014
Страна: США
Жанр: боевик, приключения
Продолжительность: 01:41:35
Перевод: Авторский (одноголосый, закадровый) [Андрей Гаврилов]
Cубтитры: нет

Режиссер: Бретт Рэтнер / Brett Ratner

В ролях: Дуэйн Джонсон, Аксель Хенни, Джозеф Файнс, Джон Хёрт, Иэн МакШейн, Роберт Мэйллет, Руфус Сьюэлл, Ирина Шейк, Ингрид Болсай Бердал, Джо Андерсон

Описание: Более тысячи лет назад измученная душа скиталась по Земле, полубог, получеловек — Геракл — могучий сын царя богов Зевса, совершив все 12 подвигов, потерял семью и теперь находит утешение только в кровавых битвах.
За эти годы он собирает вокруг себя шестерых таких же потерянных воинов, единственным смыслом жизни для которых стали сражения и присутствие смертельной опасности. Эти мужчины и женщина никогда не задают вопрос, где, почему или с кем они идут сражаться; только, сколько им заплатят. Зная это, фракийский царь Котис нанимает этих воинов, чтобы они обучили его солдат и сделали из них самую сильную и великую армию всех времен



Качество видео: BDRip
Формат видео: AVI
Видео кодек: XviD
Аудио кодек: AC3
Видео: 720x304 (2.37:1), 23.976 fps, XviD build 73 ~1667 kbps avg, 0.32 bit/pixel
Аудио: 48 kHz, AC3 Dolby Digital, 3/2 (L,C,R,l,r) + LFE ch, ~384 kbps
За перевод Гаврилова большое спасибо пользователям форума hdtracker
_MyxAmoP_; kinobbk; saenwert; Brown15; ZeRoNe; Schmulke; dwser; Xerman13; dunhill200; Letyoha3; Pain_70; kondratzx; Диммон; Role; Chistobaev; Vimann; Loki; shtift; zeleniydzhan; Gross1978; rydanes; marlboro-man; Gangster; hulahup; Tagansky; vovyanskiy; ylnian
Полное имя : Геракл 2014 ЕС.avi
Формат : AVI
Формат/Информация : Audio Video Interleave
Размер файла : 1,46 Гбайт
Продолжительность : 1 ч. 41 м.
Общий поток : 2061 Кбит/сек
Программа кодирования : VirtualDubMod 1.5.10.2 (build 2540/release)
Библиотека кодирования : VirtualDubMod build 2540/release
Видео
Идентификатор : 0
Формат : MPEG-4 Visual
Профиль формата : Advanced Simple@L5
Параметр BVOP формата : 1
Параметр QPel формата : Нет
Параметр GMC формата : Без точки перехода
Параметр матрицы формата : Выборочная
Идентификатор кодека : XVID
Идентификатор кодека/Подсказка : XviD
Продолжительность : 1 ч. 41 м.
Битрейт : 1668 Кбит/сек
Ширина : 720 пикселей
Высота : 304 пикселя
Соотношение сторон : 2,35:1
Частота кадров : 23,976 кадра/сек
Цветовое пространство : YUV
Субдискретизация насыщенности : 4:2:0
Битовая глубина : 8 бит
Тип развёртки : Прогрессивная
Метод сжатия : С потерями
Бит/(Пиксели*Кадры) : 0.318
Размер потока : 1,18 Гбайт (81%)
Библиотека кодирования : XviD 73
Аудио
Идентификатор : 1
Формат : AC-3
Формат/Информация : Audio Coding 3
Расширение режима : CM (complete main)
Параметр Endianness формата : Big
Идентификатор кодека : 2000
Продолжительность : 1 ч. 41 м.
Вид битрейта : Постоянный
Битрейт : 384 Кбит/сек
Каналы : 6 каналов
Расположение каналов : Front: L C R, Side: L R, LFE
Частота : 48,0 КГц
Битовая глубина : 16 бит
Метод сжатия : С потерями
Размер потока : 279 Мбайт (19%)
Выравнивание : Разделение по промежуткам
Продолжительность промежутка : 42 мс. (1,00 видеокадр)
Время предзагрузки промежутка : 500 мс.
piratbit.pw



Скачать Геракл через торрент http://i59.fastpic.ru/big/2015/0323/81/75e98fdf688d36ba08a0130e96de1c81.jpg Скачать фильм Геракл через торрент бесплантно в хорошем качестве Описание: Более тысячи лет назад измученная душа скиталась по Земле, полубог, получеловек — Геракл — могучий сын царя богов Зевса, совершив ... 7.5 10 4
Торрент: Зарегистрирован [2015-04-02 18:36] · скачан: 263 раз
Статус: √ проверено
Размер: 1.46 GB
Как cкачать? Как скачать Геракл через торрент | UTorrent

% Раздел Тема Автор DL S | L
Фильмы [HD 720p, 1080p] (Хороший звук DUB, MVO) [ 3.87 GB ] Геракл / Hercules [2014 BDRip 1080p-HEVC 10bit + VO] [Расширенная версия / Extended Cut] ADVOKAT69 Скачать
1 | 0
Ultra HD (UHD: 2K, 4K, 8K) — видео сверхвысокой чёткости [ 56.12 GB ] Геракл: Начало легенды / The Legend of Hercules [2014 UHD BDRemux 2160p] - [] sheker187 Скачать
1 | 0
Фильмы 2014 [DVDrip, WEB-DLRip, HDrip] [ 2.18 GB ] Геракл: Начало легенды / The Legend of Hercules [2014 Болгария HDRip-AVC] - [] От R.G. PiratFilms White Smoke Скачать
1 | 0
Фильмы [HD 720p, 1080p] (Хороший звук DUB, MVO) [ 11.02 GB ] Геракл / Hercules [2014 BDRip 1080p Dub ] Seedtank Скачать
1 | 0
Фильмы 2014 [DVDrip, WEB-DLRip, HDrip] [ 2.19 GB ] Геракл / Hercules [2014 BDRip - [ ] [Theatrical Cut] Ворон Скачать
1 | 0
Фильмы (DVD фильмы) [ 7.15 GB ] Геракл / Hercules [2014 DVD9] R5 voovaz Скачать
1 | 0
Фильмы 2014 [DVDrip, WEB-DLRip, HDrip] [ 1.46 GB ] Геракл / Hercules [2014 BDRip - / ][Theatrical Cut] _KaisiK_ Скачать
1 | 0

28-11-2019 20:33  

Отключить всю рекламу на сайте

    Дорогой пользователь! Огромная просьба, поблагодарите релизера, оцените раздачу и оставьте свои комментарий, если Вы скачали Геракл через торрент бесплатно! Внесите свою лепту в развитие PiratBit!
    Комментировать посты могут только пользователи прошедшие не сложную регистрацию
    Показать сообщения:    

    Геракл через торрент
    Скачать бесплатно Геракл
    Геракл скачать торрент
    Геракл смотреть онлайн
    Cкачать фильм Геракл бесплатно
    Геракл скачать торрент в хорошем качестве
    Геракл смотреть онлайн бесплатно в хорошем качестве


    Вы не можете начинать темы
    Вы не можете отвечать на сообщения
    Вы не можете редактировать свои сообщения
    Вы не можете удалять свои сообщения
    Вы не можете голосовать в опросах
    Вы не можете прикреплять файлы к сообщениям
    Вы можете скачивать файлы