1 сезон

3 сезон

iTunes

1

iTunes

DUB Netflix

iTunes

13

1 сезон

RePack

30

Deluxe

pack

Легкие деньги

ВАЖНО

ИГРА 18+

pack

RePack

MK11

RePack

jed

RePack

fifa19

RePack

RDR2

RePack

NEED FOR SPEED™ PAYBACK

4 сезон

9 сезон

Бесстыжие 9 сезон

Все сериалы

все сериалы на PB.wtf

RePack

FAR CRY 5

Anonymous, добрый вечер, мы не успеваем до 1 числа собрать деньги на оплату серверов, помогите нам пожалуйста в это трудное время. В качестве благодарности мы отключим Вам всю рекламу на сайте (укажите свой ник в строку Ваше имя)!

×
  
Magnet ссылка

Весна / Spring (Джастин Бенсон , Аарон Мурхед ) [2014, ужасы, фантастика, мелодрама, WEB-DLRip, Любительский (двухголосый) [den904, DeadSno] piratbit.pw

Весна через торрент piratbit.pw

Размер: 1.37 GB | Добавлен: 6 лет 2 мес. назад | Торрент скачан:339 раз
Скачать  

02-04-2015 09:48 Весна Скачать торрент  


Весна / Spring
«Love is a monster»

ИНФОРМАЦИЯ:
Год выпуска:2014
Страна: США
Жанр: ужасы, фантастика, мелодрама
Продолжительность: 01:49:36
Перевод: Любительский (двухголосый) [den904, DeadSno]
Режиссер: Джастин Бенсон , Аарон Мурхед

В Ролях:


Лу Тэйлор Пуччи (Evan), Надиа Хилкер (Louise), Ванесса Беднар (Gail), Шэйн Брэйди (Brad), Франческо Карнелутти (Angelo), Винни Каррен (Mike), Оджи Дьюк (Jackie), Джереми Гарднер (Tommy), Some Other Guy (Pledge), Холли Хоукинс (Nicole Russell), Кензо Ли (Cop), Ник Неверн (Thomas)

ОПИСАНИЕ:
Фильм о молодом парне, который покидает Южную Калифорнию и отправляется в Италию, где закручивает бурный роман с женщиной, у которой есть темные тайны...

  • Мировая премьера:5 сентября 2014

    ТЕХ.ДАННЫЕ:
    Качество: WEB-DLRip
    Формат: AVI
    Видео кодек: XviD
    Аудио кодек: AC3
    Видео: XviD, 720x304 (2.35:1), 1392 kbps, 23,976 fps, 0,252 bpp
    Аудио: AC3 / 5.1 / 48 kHz / 384 kbps / 16 bit



    Код:

    General
    Complete name                            : D:\Торенты\Spring.2014.L2.WEB-DLRip.1400Mb.avi
    Format                                   : AVI
    Format/Info                              : Audio Video Interleave
    File size                                : 1.37 GiB
    Duration                                 : 1h 49mn
    Overall bit rate                         : 1 785 Kbps
    Writing application                      : VirtualDubMod 1.5.10.2 (build 2540/release)
    Writing library                          : VirtualDubMod build 2540/release

    Video
    ID                                       : 0
    Format                                   : MPEG-4 Visual
    Format profile                           : Advanced Simple@L5
    Format settings, BVOP                    : 2
    Format settings, QPel                    : No
    Format settings, GMC                     : No warppoints
    Format settings, Matrix                  : Default (MPEG)
    Codec ID                                 : XVID
    Codec ID/Hint                            : XviD
    Duration                                 : 1h 49mn
    Bit rate                                 : 1392 Kbps
    Width                                    : 720 pixels
    Height                                   : 304 pixels
    Display aspect ratio                     : 2.35:1
    Frame rate                               : 23.976 fps
    Color space                              : YUV
    Chroma subsampling                       : 4:2:0
    Bit depth                                : 8 bits
    Scan type                                : Progressive
    Compression mode                         : Lossy
    Bits/(Pixel*Frame)                       : 0.252
    Stream size                              : 1.01 GiB (74%)
    Writing library                          : XviD 1.2.1 (UTC 2008-12-04)

    Audio
    ID                                       : 1
    Format                                   : AC-3
    Format/Info                              : Audio Coding 3
    Mode extension                           : CM (complete main)
    Codec ID                                 : 2000
    Duration                                 : 1h 49mn
    Bit rate mode                            : Constant
    Bit rate                                 : 384 Kbps
    Channel(s)                               : 6 channels
    Channel positions                        : Front: L C R, Side: L R, LFE
    Sampling rate                            : 48.0 KHz
    Bit depth                                : 16 bits
    Compression mode                         : Lossy
    Stream size                              : 301 MiB (22%)
    Alignment                                : Split accross interleaves

    Скриншоты:


    © Оформление by Ворон
    piratbit.pw



  • Скачать Весна через торрент https://pic1.kartinco.top/images/61/ordi9.jpg Скачать фильм Весна через торрент бесплантно в хорошем качестве Е:Фильм о молодом парне, который покидает Южную Калифорнию и отправляется в Италию, где закручивает бурный роман с женщиной, у которой есть ... 9.4 10 9
    Торрент: Зарегистрирован [2015-04-02 09:48] · скачан: 339 раз
    Статус: T временная
    Размер: 1.37 GB
    Как cкачать? Как скачать Весна через торрент | UTorrent

    28-11-2019 20:33  

    Отключить всю рекламу на сайте

      Дорогой пользователь! Огромная просьба, поблагодарите релизера, оцените раздачу и оставьте свои комментарий, если Вы скачали Весна через торрент бесплатно! Внесите свою лепту в развитие PiratBit!
      Комментировать посты могут только пользователи прошедшие не сложную регистрацию
      Показать сообщения:    

      Весна через торрент
      Скачать бесплатно Весна
      Весна скачать торрент
      Весна смотреть онлайн
      Cкачать фильм Весна бесплатно
      Весна скачать торрент в хорошем качестве
      Весна смотреть онлайн бесплатно в хорошем качестве


      Вы не можете начинать темы
      Вы не можете отвечать на сообщения
      Вы не можете редактировать свои сообщения
      Вы не можете удалять свои сообщения
      Вы не можете голосовать в опросах
      Вы не можете прикреплять файлы к сообщениям
      Вы можете скачивать файлы