Ссылка на приватное зеркало нашего сайта всего за 1$. Внимание количество ограничено!!!

2 сезон

iTunes

1 сезон

1

iTunes

iTunes

iTunes

1 сезон

RePack

30

ИГРА 18+

pack

ВАЖНО

!!Акция!!

Alien_RageХит недели

RePack

MK11
pack

Забери бонус

RePack

jed

!!Акция!!

Alien_Rage

RePack

fifa19

RePack

Assassins Creed: Odyssey

RePack

NEED FOR SPEED™ PAYBACK

4 сезон

9 сезон

Бесстыжие 9 сезон

Все сериалы

все сериалы на PB.wtf

RePack

FAR CRY 5
  

Племя (Мирослав Слабошпицкий ) [2014, драма, криминал, WEB-DLRip] piratbit.pw

Племя через торрент piratbit.pw

Размер: 1.41 GB | Добавлен: 5 лет 6 мес. назад | Торрент скачан:1244 раза
Скачать  

30-03-2015 09:33 Племя Скачать торрент  


Племя
«Для любви и ненависти слова не нужны»

ИНФОРМАЦИЯ:
Год выпуска:2014
Страна: Украина, Нидерланды
Жанр: драма, криминал
Продолжительность: 02:06:40
Перевод: Не требуется (язык жестов)
Режиссер: Мирослав Слабошпицкий

В Ролях:


Григорий Фесенко, Яна Новикова, Роза Бабий, Александр Дзядевич, Ярослав Билецкий, Иван Тишко, Александр Осадчий, Александр Сидельников, Александр Паниван, Кирилл Кошик, Марина Паниван, Татьяна Радченко

ОПИСАНИЕ:
Главный герой фильма, Сергей, попадает в специализированный интернат для слабослышащих, где существует криминальная организация, Племя. Он пытается занять свое место в иерархии школы и принимает участие в нескольких ограблениях. Когда Сергей влюбляется в Анну, одну из наложниц Смотрящего, ему приходится нарушить неписанные законы племени.

  • Мировая премьера:21 мая 2014

    ТЕХ.ДАННЫЕ:
    Качество: WEB-DLRip
    Формат: AVI
    Видео кодек: XviD
    Аудио кодек: AC3
    Видео: XviD, 720x364 (1.978), 1267 kbps, 25 fps, 0,184 bpp
    Аудио: AC3 / 2.0 / 32 kHz / 320 kbps / 16 bit



    Код:

    General
    Complete name                            : D:\Торенты\The.Tribe_2014.WEB-DLRip.avi
    Format                                   : AVI
    Format/Info                              : Audio Video Interleave
    File size                                : 1.41 GiB
    Duration                                 : 2h 6mn
    Overall bit rate                         : 1 596 Kbps
    Writing library                          : VirtualDub build 34676/release

    Video
    ID                                       : 0
    Format                                   : MPEG-4 Visual
    Format profile                           : Simple@L3
    Format settings, BVOP                    : No
    Format settings, QPel                    : No
    Format settings, GMC                     : No warppoints
    Format settings, Matrix                  : Default (H.263)
    Codec ID                                 : XVID
    Codec ID/Hint                            : XviD
    Duration                                 : 2h 6mn
    Bit rate                                 : 1267Kbps
    Width                                    : 720 pixels
    Height                                   : 364 pixels
    Display aspect ratio                     : 1.978
    Frame rate                               : 25.000 fps
    Color space                              : YUV
    Chroma subsampling                       : 4:2:0
    Bit depth                                : 8 bits
    Scan type                                : Progressive
    Compression mode                         : Lossy
    Bits/(Pixel*Frame)                       : 0.184
    Stream size                              : 1.07 GiB (75%)
    Writing library                          : XviD 64

    Audio
    ID                                       : 1
    Format                                   : AC-3
    Format/Info                              : Audio Coding 3
    Mode extension                           : CM (complete main)
    Codec ID                                 : 2000
    Duration                                 : 2h 6mn
    Bit rate mode                            : Constant
    Bit rate                                 : 320 Kbps
    Channel(s)                               : 2 channels
    Channel positions                        : Front: L R
    Sampling rate                            : 32.0 KHz
    Bit depth                                : 16 bits
    Compression mode                         : Lossy
    Stream size                              : 290 MiB (20%)
    Alignment                                : Aligned on interleaves

    Скриншоты:


    © Оформление by Ворон
    piratbit.pw



  • Скачать Племя через торрент http://pic.kartinco.top/images/6/ordi9.jpg Скачать фильм Племя через торрент бесплантно в хорошем качестве Е:Главный герой фильма, Сергей, попадает в специализированный интернат для слабослышащих, где существует криминальная организация, Племя. ... 8.9 10 23
    Торрент: Зарегистрирован [2015-03-30 09:33] · скачан: 1 244 раз
    Статус: √ проверено
    Размер: 1.41 GB
    Как cкачать? Как скачать Племя через торрент | qTorrent

    % Раздел Тема Автор DL S | L
    T Фильмы 2017 [DVDrip, WEB-DLRip, HDrip] (DUB, MVO) [ 1.46 GB ] Племена Палос Вердес / The Tribes of Palos Verdes [2017 BDRip] MVO [HDrezka Studio] bober100 Скачать
    1 | 0
    Документальные фильмы и телепередачи [ 1.58 GB ] Viasat History: Владыки Тихоокеанского побережья: племена американского северо-запада / Masters of the Pacific Coast: The Tribes of the American Northwest [01-02 из 02] [2016 документальный HDTVRip] Armstrong Скачать
    1 | 0
    Документальные фильмы и телепередачи [ 3.48 GB ] Viasat History: Владыки Тихоокеанского побережья: племена американского северо-запада / Masters of the Pacific Coast: The Tribes of the American Northwest [01-02 из 02] [2016 документальный HDTVRip 1080p] VO Armstrong Скачать
    1 | 0
    Ultra HD (UHD: 2K, 4K, 8K) — видео сверхвысокой чёткости [ 58.37 GB ] Миссия невыполнима: Племя изгоев / Mission: Impossible - Rogue Nation [2015 UHD Blu-Ray 2160p] DUB [HDR + Dolby Vision] sheker187 Скачать
    1 | 0
    Ultra HD (UHD: 2K, 4K, 8K) — видео сверхвысокой чёткости [ 51.28 GB ] Миссия невыполнима: Племя изгоев / Mission: Impossible - Rogue Nation [2015 UHD BDRemux 2160p] DUB + AVO [Ю. Живов] sheker187 Скачать
    3 | 0
    Рок, Панк, Альтернатива (mp3) [ 95 MB ] Андрей Куликов и... - Племя Молится о Нас 2018 / MP3 / 320 kbps / Rock Barabashka Скачать
    1 | 1
    Наши фильмы (HD, WEB-DL 720p, 1080p) [ 4.58 GB ] Племя / The Tribe [2014 BDRip 720p by msltel] не требуется msltel Скачать
    1 | 0

    28-11-2019 20:33  

    Отключить всю рекламу на сайте

    30-03-2015 11:38 Племя Скачать торрент  

    как фильм?piratbit.pw



    30-03-2015 14:41 Племя Скачать торрент  

    Антонн писал(а):

    как фильм?

    Тебе жестами показать?piratbit.pw



    30-03-2015 15:29 Племя Скачать торрент  

    парень на пальцах объяснил,что его зовут Хуанpiratbit.pw



    31-03-2015 16:49 Племя Скачать торрент  

    фильм-очередной-..............лучше не смотретьpiratbit.pw



    14-04-2015 16:20 Племя Скачать торрент  

    Иди блинов с лопаты поешь. Канские ветви за "поп-корн" не дают.piratbit.pw



      Дорогой пользователь! Огромная просьба, поблагодарите релизера, оцените раздачу и оставьте свои комментарий, если Вы скачали Племя через торрент бесплатно! Внесите свою лепту в развитие PiratBit!
      Комментировать посты могут только пользователи прошедшие не сложную регистрацию
      Показать сообщения:    

      Племя через торрент
      Скачать бесплатно Племя
      Племя скачать торрент
      Племя смотреть онлайн
      Cкачать фильм Племя бесплатно
      Племя скачать торрент в хорошем качестве
      Племя смотреть онлайн бесплатно в хорошем качестве


      Вы не можете начинать темы
      Вы не можете отвечать на сообщения
      Вы не можете редактировать свои сообщения
      Вы не можете удалять свои сообщения
      Вы не можете голосовать в опросах
      Вы не можете прикреплять файлы к сообщениям
      Вы можете скачивать файлы