1 сезон

3 сезон

iTunes

1

iTunes

DUB Netflix

iTunes

13

1 сезон

RePack

30

Deluxe

pack

Легкие деньги

ВАЖНО

ИГРА 18+

pack

RePack

MK11

RePack

jed

RePack

fifa19

RePack

RDR2

RePack

NEED FOR SPEED™ PAYBACK

4 сезон

9 сезон

Бесстыжие 9 сезон

Все сериалы

все сериалы на PB.wtf

RePack

FAR CRY 5

Anonymous, добрый вечер, мы не успеваем до 1 числа собрать деньги на оплату серверов, помогите нам пожалуйста в это трудное время. В качестве благодарности мы отключим Вам всю рекламу на сайте (укажите свой ник в строку Ваше имя)!

×
  
Magnet ссылка

Блэквуд / Blackwood (Адам Уимпенни ) [2014, триллер, DVDRip, Любительский (двухголосый) (DeadSno & den904) piratbit.pw

Блэквуд через торрент piratbit.pw

Размер: 1.39 GB | Добавлен: 6 лет 2 мес. назад | Торрент скачан:277 раз
Скачать  

26-03-2015 03:25 Блэквуд Скачать торрент  


Блэквуд / Blackwood


ИНФОРМАЦИЯ:
Год выпуска:2014
Страна: Великобритания
Жанр: триллер
Продолжительность: 01:29:52
Перевод: Любительский (двухголосый) (DeadSno & den904)
Режиссер: Адам Уимпенни

В Ролях:


Эд Стоппард (Ben Marshall), София Майлс (Rachel Marshall), Рассел Тови (Jack), Исаак Эндрюс (Harry Marshall), Пол Кэй (Father Patrick), Грег Уайз (Dominic), Джоэнна Вандерхам (Jessica), Кеннет Коллар (Estate Agent), Анна Андресен (Nurse), Гарри Бертон (Professor York), Алан Дрейк (Grimes), Себастьян Данн (Dr. Parr)

ОПИСАНИЕ:
Молодой профессор истории и его супруга давно мечтали переехать в какой-нибудь старинный дом. Пока их ребенок был маленький, они не покидали город, чтобы у них была возможность обращаться к лучшим врачам в случае болезни ребенка. Теперь, когда их сын подрос, а доктора порекомендовали всем членам семьи пожить на свежем воздухе они, не задумываясь, начали подыскивать себе дом. Их внимание привлек дом в поместье Блэквуд. Здание сразу впечатлило семью своими размерами и старинной отделкой. Здесь профессор сможет начать работу над своей книгой, а супруга с удовольствием будет заниматься домашним хозяйством. Понравился дом и их восьмилетнему сыну, который сразу оценил свободное пространство, где он может делать все, что ему захочется. Однажды бегая по окрестностям, мальчик увидел некоего другого мальчика в странной маске. Он сообщил об увиденном своему отцу. Тому тоже показалось это странным, и как раз в этот момент прямо внутри дома что-то заскрипело. Семейство не может не оставить без внимания многочисленные странные инциденты которые с ними начали происходить. Небольшое расследование показало, что некогда, в этом доме были погибшие и вполне возможно, что сейчас они пытаются что-то сказать новым хозяевам. Возможно, к этому всему имеет прямое причастие старый ветеран живущий неподалеку. Ситуация накалилась до предела, но с приездом на усадьбу старого друга семьи со своей подругой стало еще опасней.

  • Мировая премьера:17 октября 2013

    ТЕХ.ДАННЫЕ:
    Качество: DVDRip
    Формат: AVI
    Видео кодек: XviD
    Аудио кодек: AC3
    Видео: XviD, 704x304 (2.35:1), 2014 kbps, 24 fps, 0,375 bpp
    Аудио: AC3 / 2.0 / 48 kHz / 192 kbps / 16 bit



    Код:

    General
    Complete name                            : D:\Торенты\Блэквуд.avi
    Format                                   : AVI
    Format/Info                              : Audio Video Interleave
    File size                                : 1.39 GiB
    Duration                                 : 1h 29mn
    Overall bit rate                         : 2 215 Kbps

    Video
    ID                                       : 0
    Format                                   : MPEG-4 Visual
    Format profile                           : Advanced Simple@L5
    Format settings, BVOP                    : 2
    Format settings, QPel                    : No
    Format settings, GMC                     : No warppoints
    Format settings, Matrix                  : Default (H.263)
    Codec ID                                 : XVID
    Codec ID/Hint                            : XviD
    Duration                                 : 1h 29mn
    Bit rate                                 : 2014 Kbps
    Width                                    : 704 pixels
    Height                                   : 304 pixels
    Display aspect ratio                     : 2.35:1
    Frame rate                               : 24.000 fps
    Color space                              : YUV
    Chroma subsampling                       : 4:2:0
    Bit depth                                : 8 bits
    Scan type                                : Progressive
    Compression mode                         : Lossy
    Bits/(Pixel*Frame)                       : 0.375
    Stream size                              : 1.21 GiB (87%)
    Writing library                          : XviD 64

    Audio
    ID                                       : 1
    Format                                   : AC-3
    Format/Info                              : Audio Coding 3
    Mode extension                           : CM (complete main)
    Codec ID                                 : 2000
    Duration                                 : 1h 29mn
    Bit rate mode                            : Constant
    Bit rate                                 : 192 Kbps
    Channel(s)                               : 2 channels
    Channel positions                        : Front: L R
    Sampling rate                            : 48.0 KHz
    Bit depth                                : 16 bits
    Compression mode                         : Lossy
    Stream size                              : 123 MiB (9%)
    Alignment                                : Aligned on interleaves



    Скриншоты:


    © Оформление by Ворон
    piratbit.pw



  • Скачать Блэквуд через торрент https://pic1.kartinco.top/images/61/ordi9.jpg Скачать фильм Блэквуд через торрент бесплантно в хорошем качестве Е:Молодой профессор истории и его супруга давно мечтали переехать в какой-нибудь старинный дом. Пока их ребенок был маленький, они не ... 10 10 6
    Торрент: Зарегистрирован [2015-03-26 03:25] · скачан: 277 раз
    Статус: T временная
    Размер: 1.39 GB
    Как cкачать? Как скачать Блэквуд через торрент | UTorrent

    28-11-2019 20:33  

    Отключить всю рекламу на сайте


      Дорогой пользователь! Огромная просьба, поблагодарите релизера, оцените раздачу и оставьте свои комментарий, если Вы скачали Блэквуд через торрент бесплатно! Внесите свою лепту в развитие PiratBit!
      Комментировать посты могут только пользователи прошедшие не сложную регистрацию
      Показать сообщения:    

      Блэквуд через торрент
      Скачать бесплатно Блэквуд
      Блэквуд скачать торрент
      Блэквуд смотреть онлайн
      Cкачать фильм Блэквуд бесплатно
      Блэквуд скачать торрент в хорошем качестве
      Блэквуд смотреть онлайн бесплатно в хорошем качестве


      Вы не можете начинать темы
      Вы не можете отвечать на сообщения
      Вы не можете редактировать свои сообщения
      Вы не можете удалять свои сообщения
      Вы не можете голосовать в опросах
      Вы не можете прикреплять файлы к сообщениям
      Вы можете скачивать файлы