1 сезон

3 сезон

iTunes

1

iTunes

DUB Netflix

iTunes

13

1 сезон

RePack

30

Deluxe

pack

Легкие деньги

ВАЖНО

ИГРА 18+

pack

RePack

MK11

RePack

jed

RePack

fifa19

RePack

RDR2

RePack

NEED FOR SPEED™ PAYBACK

4 сезон

9 сезон

Бесстыжие 9 сезон

Все сериалы

все сериалы на PB.wtf

RePack

FAR CRY 5

Anonymous, добрый вечер, мы не успеваем до 1 числа собрать деньги на оплату серверов, помогите нам пожалуйста в это трудное время. В качестве благодарности мы отключим Вам всю рекламу на сайте (укажите свой ник в строку Ваше имя)!

×
  
Magnet ссылка

Изъяны / Faults (Райли Стернс ) [2014, триллер, драма, WEB-DLRip, Любительский (одноголосый) [datynet] piratbit.pw

Изъяны через торрент piratbit.pw

Размер: 1.31 GB | Добавлен: 6 лет 2 мес. назад | Торрент скачан:90 раз
Скачать  

26-03-2015 03:21 Изъяны Скачать торрент  


Изъяны / Faults


ИНФОРМАЦИЯ:
Год выпуска:2014
Страна: США
Жанр: триллер, драма
Продолжительность: 01:29:53
Перевод: Любительский (одноголосый) [datynet]
Режиссер: Райли Стернс

В Ролях:


Мэри Элизабет Уинстэд (Claire), Лэнс Реддик (Mick), Лиленд Орсер (Ansel), Джон Грайз (Terry), Бет Грант (Evelyn), Леонард Эрл Хауз (Raymond), Николас Туччи (James), Дэвид Чандлер (Riley the Waiter), Келли Маттесон (Jennifer), Шира Вайц (Perky Waitress), Сьюзан Эверитт (Mother), Аманда Сондерс (Receptionist)

ОПИСАНИЕ:
Клэр попадает под влияние нового таинственного культа под названием «Изъяны». Отчаявшиеся родители Клэр, боясь потерять свою дочь, нанимают одного из ведущих мировых экспертов по контролю разума - Анселя Рота.

  • Мировая премьера:9 марта 2014

    ТЕХ.ДАННЫЕ:
    Качество: WEB-DLRip
    Формат: AVI
    Видео кодек: XviD
    Аудио кодек: MP3
    Видео: XviD, 720x304 (2.35:1), 1885 kbps, 23,976 fps, 0,344 bpp
    Аудио: MP3 / 2.0 / 44 kHz / 192 kbps /



    Код:

    General
    Complete name                            : D:\Торенты\Faults.avi
    Format                                   : AVI
    Format/Info                              : Audio Video Interleave
    File size                                : 1.31 GiB
    Duration                                 : 1h 29mn
    Overall bit rate                         : 2 086 Kbps
    Writing library                          : VirtualDub build 34753/release

    Video
    ID                                       : 0
    Format                                   : MPEG-4 Visual
    Format profile                           : Advanced Simple@L5
    Format settings, BVOP                    : 2
    Format settings, QPel                    : No
    Format settings, GMC                     : No warppoints
    Format settings, Matrix                  : Default (H.263)
    Muxing mode                              : Packed bitstream
    Codec ID                                 : XVID
    Codec ID/Hint                            : XviD
    Duration                                 : 1h 29mn
    Bit rate                                 : 1885 Kbps
    Width                                    : 720 pixels
    Height                                   : 304 pixels
    Display aspect ratio                     : 2.35:1
    Frame rate                               : 23.976 fps
    Color space                              : YUV
    Chroma subsampling                       : 4:2:0
    Bit depth                                : 8 bits
    Scan type                                : Progressive
    Compression mode                         : Lossy
    Bits/(Pixel*Frame)                       : 0.344
    Stream size                              : 1.13 GiB (86%)
    Writing library                          : XviD 64

    Audio
    ID                                       : 1
    Format                                   : MPEG Audio
    Format version                           : Version 1
    Format profile                           : Layer 3
    Codec ID                                 : 55
    Codec ID/Hint                            : MP3
    Duration                                 : 1h 29mn
    Bit rate mode                            : Constant
    Bit rate                                 : 192 Kbps
    Channel(s)                               : 2 channels
    Sampling rate                            : 44.1 KHz
    Compression mode                         : Lossy
    Stream size                              : 123 MiB (9%)
    Alignment                                : Split accross interleaves

    Скриншоты:


    © Оформление by Ворон
    piratbit.pw



  • Скачать Изъяны через торрент https://pic1.kartinco.top/images/61/ordi9.jpg Скачать фильм Изъяны через торрент бесплантно в хорошем качестве Е:Клэр попадает под влияние нового таинственного культа под названием «Изъяны». Отчаявшиеся родители Клэр, боясь потерять свою дочь, ... 10 10 3
    Торрент: Зарегистрирован [2015-03-26 03:21] · скачан: 90 раз
    Статус: T временная
    Размер: 1.31 GB
    Как cкачать? Как скачать Изъяны через торрент | UTorrent

    28-11-2019 20:33  

    Отключить всю рекламу на сайте

      Дорогой пользователь! Огромная просьба, поблагодарите релизера, оцените раздачу и оставьте свои комментарий, если Вы скачали Изъяны через торрент бесплатно! Внесите свою лепту в развитие PiratBit!
      Комментировать посты могут только пользователи прошедшие не сложную регистрацию
      Показать сообщения:    

      Изъяны через торрент
      Скачать бесплатно Изъяны
      Изъяны скачать торрент
      Изъяны смотреть онлайн
      Cкачать фильм Изъяны бесплатно
      Изъяны скачать торрент в хорошем качестве
      Изъяны смотреть онлайн бесплатно в хорошем качестве


      Вы не можете начинать темы
      Вы не можете отвечать на сообщения
      Вы не можете редактировать свои сообщения
      Вы не можете удалять свои сообщения
      Вы не можете голосовать в опросах
      Вы не можете прикреплять файлы к сообщениям
      Вы можете скачивать файлы