MEGA SALE -50% FORZA HORIZON 4 ULTIMATE+ВСЕ DLC+ОНЛАЙН всего за 599р. 299 руб. (супер цена). Внимание количество ограничено!!!

iTunes

1+1

iTunes

мы

iTunes

1

iTunes

Чернобыль

1 сезон

Ральф против интернета

Лицензия

ПШазам

Лицензия

Игра престолов

Лицензия

30
pack

ВАЖНО

!!Акция!!

Alien_RageХит недели

RePack

Resident Evil 21

ИГРА 18+

pack

RePack

Metro:Exodus

!!Акция!!

Alien_Rage

RePack

fifa19

RePack

Assassins Creed: Odyssey

RePack

NEED FOR SPEED™ PAYBACK

3 сезон

9 сезон

Бесстыжие 9 сезон

Все сериалы

все сериалы на PB.wtf

RePack

FAR CRY 5
Ребята, катастрофически не хватает 7730р. для оплаты серверов за ИЮЛЬ (всвязи с блокировками трафик упал в 3 раза), 1-2р., выручайте.
  

Чжун Куй: Снежная дева и тёмный кристалл / Zhong Kui fu mo: Xue yao mo ling (Питер Пау , Чжао Тайню ) [2015, фэнтези, TS, Любительский (двухголосый) [GREEN TEA] piratbit.pw

Чжун Куй: Снежная дева и тёмный кристалл через торрент piratbit.pw

Размер: 1.37 GB | Добавлен: 4 года 4 мес. назад | Торрент скачан:511 раз
Скачать  

25-03-2015 03:19 Чжун Куй: Снежная дева и тёмный кристалл Скачать торрент  


Чжун Куй: Снежная дева и тёмный кристалл / Zhong Kui fu mo: Xue yao mo ling


ИНФОРМАЦИЯ:
Год выпуска:2015
Страна: Китай, Гонконг, США
Жанр: фэнтези
Продолжительность: 01:57:48
Перевод: Любительский (двухголосый)[GREEN TEA]
Примечание:Присутствует субтитры Английские, китайские (вшитые)
Режиссер: Питер Пау , Чжао Тайню

В Ролях:


Бэйэр Бао, Уинстон Чао, Чэнь Кунь, Summer Jike, Ли Бинбин

ОПИСАНИЕ:
Молодой человек Чжун Куй - в поздней китайской мифологии повелитель демонов, а к началу эпохи Тан Чжун Куй превратился из божества, оберегающего от злых сил, в божество, усмиряющее и истребляющее демонов - наделённый таинственными силами вынужден сражаться с духами Неба, Земли и Ада ради спасения своих соотечественников и любимой женщины…

  • Мировая премьера:19 февраля 2015

    ТЕХ.ДАННЫЕ:
    Качество: TS
    Формат: AVI
    Видео кодек: XviD
    Аудио кодек: MP3
    Видео: XviD, 720x304 (2.35:1), 1460 kbps, 23,976 fps, 0,266 bpp
    Аудио: MP3 / 2.0 / 48 kHz / 192 kbps /



    Код:

    General
    Complete name                            : D:\Торенты\Zhong.Kui.Snow.Girl.and.the.Dark.Crystal.2015.TC.1400MB.avi
    Format                                   : AVI
    Format/Info                              : Audio Video Interleave
    File size                                : 1.37 GiB
    Duration                                 : 1h 57mn
    Overall bit rate mode                    : Variable
    Overall bit rate                         : 1 661 Kbps
    Writing application                      : VirtualDubMod 1.5.10.2 (build 2540/release)
    Writing library                          : VirtualDubMod build 2540/release

    Video
    ID                                       : 0
    Format                                   : MPEG-4 Visual
    Format profile                           : Advanced Simple@L5
    Format settings, BVOP                    : 2
    Format settings, QPel                    : No
    Format settings, GMC                     : No warppoints
    Format settings, Matrix                  : Default (MPEG)
    Codec ID                                 : XVID
    Codec ID/Hint                            : XviD
    Duration                                 : 1h 57mn
    Bit rate                                 : 1460 Kbps
    Width                                    : 720 pixels
    Height                                   : 304 pixels
    Display aspect ratio                     : 2.35:1
    Frame rate                               : 23.976 fps
    Color space                              : YUV
    Chroma subsampling                       : 4:2:0
    Bit depth                                : 8 bits
    Scan type                                : Progressive
    Compression mode                         : Lossy
    Bits/(Pixel*Frame)                       : 0.266
    Stream size                              : 1.15 GiB (84%)
    Writing library                          : XviD 1.2.1 (UTC 2008-12-04)

    Audio
    ID                                       : 1
    Format                                   : MPEG Audio
    Format version                           : Version 1
    Format profile                           : Layer 3
    Mode                                     : Joint stereo
    Codec ID                                 : 55
    Codec ID/Hint                            : MP3
    Duration                                 : 1h 57mn
    Bit rate mode                            : Variable
    Bit rate                                 : 192 Kbps
    Channel(s)                               : 2 channels
    Sampling rate                            : 48.0 KHz
    Compression mode                         : Lossy
    Stream size                              : 162 MiB (12%)
    Alignment                                : Split accross interleaves

    Скриншоты:


    © Оформление by Ворон
    piratbit.pw



  • Скачать Чжун Куй: Снежная дева и тёмный кристалл через торрент http://pic.kartinco.top/images/6/ordi9.jpg Скачать фильм Чжун Куй: Снежная дева и тёмный кристалл через торрент бесплантно в хорошем качестве Е:Молодой человек Чжун Куй - в поздней китайской мифологии повелитель демонов, а к началу эпохи Тан Чжун Куй превратился из божества, ... 9.5 10 28
    Торрент: Зарегистрирован [2015-03-25 03:19] · скачан: 511 раз
    Статус: T временная
    Размер: 1.37 GB
    Как cкачать? Как скачать Чжун Куй: Снежная дева и тёмный кристалл через торрент | qTorrent

    % Раздел Тема Автор DL S | L
    T Азиатские фильмы [ 2.75 GB ] Чжун Куй: Снежная дева и тёмный кристалл / Zhong Kui fu mo: Xue yao mo ling [2015 WEBRip 1080p Любительский Ворон Скачать
    1 | 0


    >> Регистрируемся здесь <<






    Отзывы и комментарии о схеме читаем и пишем здесь: ---> Отзывы и комментарии о схеме

    Новые благодарочки в телеграм довольных пользователей:
    скриншот   скриншот   скриншот   скриншот   скриншот

    25-03-2015 08:22 Чжун Куй: Снежная дева и тёмный кристалл Скачать торрент  

    ускоглазый куй куй))piratbit.pw



    26-03-2015 10:14 Чжун Куй: Снежная дева и тёмный кристалл Скачать торрент  

    фильм - сказка из 80-х, 30 лет назад я бы поставил 8 балов, а сейчас 3+piratbit.pw



    19-06-2015 18:59 Чжун Куй: Снежная дева и тёмный кристалл Скачать торрент  

    Поржал от души, невероятная, китайска, хреньpiratbit.pw



    05-01-2016 13:31 Чжун Куй: Снежная дева и тёмный кристалл Скачать торрент  

    прям как какое-то название порно фильма piratbit.pw



      Дорогой пользователь! Огромная просьба, поблагодарите релизера, оцените раздачу и оставьте свои комментарий, если Вы скачали Чжун Куй: Снежная дева и тёмный кристалл через торрент бесплатно! Внесите свою лепту в развитие PiratBit!
      Комментировать посты могут только пользователи прошедшие не сложную регистрацию
      Показать сообщения:    

      Чжун Куй: Снежная дева и тёмный кристалл через торрент
      Скачать бесплатно Чжун Куй: Снежная дева и тёмный кристалл
      Чжун Куй: Снежная дева и тёмный кристалл скачать торрент
      Чжун Куй: Снежная дева и тёмный кристалл смотреть онлайн
      Cкачать фильм Чжун Куй: Снежная дева и тёмный кристалл бесплатно
      Чжун Куй: Снежная дева и тёмный кристалл скачать торрент в хорошем качестве
      Чжун Куй: Снежная дева и тёмный кристалл смотреть онлайн бесплатно в хорошем качестве


      Вы не можете начинать темы
      Вы не можете отвечать на сообщения
      Вы не можете редактировать свои сообщения
      Вы не можете удалять свои сообщения
      Вы не можете голосовать в опросах
      Вы не можете прикреплять файлы к сообщениям
      Вы можете скачивать файлы