1 сезон

3 сезон

iTunes

1

iTunes

DUB Netflix

iTunes

13

1 сезон

RePack

30

Deluxe

pack

Легкие деньги

ВАЖНО

ИГРА 18+

pack

RePack

MK11

RePack

jed

RePack

fifa19

RePack

RDR2

RePack

NEED FOR SPEED™ PAYBACK

4 сезон

9 сезон

Бесстыжие 9 сезон

Все сериалы

все сериалы на PB.wtf

RePack

FAR CRY 5

Anonymous, доброе утро, мы не успеваем до 1 числа собрать деньги на оплату серверов, помогите нам пожалуйста в это трудное время. В качестве благодарности мы отключим Вам всю рекламу на сайте (укажите свой ник в строку Ваше имя)!

×
  
Magnet ссылка

Папаши / The Guvnors (Гейб Тернер ) [2014, триллер, HDRip, Любительский (одноголосый) [Xixidok] piratbit.pw

Папаши через торрент piratbit.pw

Размер: 1.45 GB | Добавлен: 6 лет 2 мес. назад | Торрент скачан:325 раз
Скачать  

24-03-2015 15:50 Папаши Скачать торрент  


Папаши / The Guvnors
«Revenge is its own executioner»

ИНФОРМАЦИЯ:
Год выпуска:2014
Страна: Великобритания
Жанр: триллер
Продолжительность: 01:34:56
Перевод: Любительский (одноголосый) [Xixidok]
Режиссер: Гейб Тернер

В Ролях:


Мартин Хэнкок (DC Meyler), Tom Dunlea (Young Meyler), Вэс Блэквуд (Bill), Лоррэйн Стэнли (Cheryl), Чарли Палмер Ротуэлл (Trey), Ли Николас Харрис (Policeman PC492), Даг Аллен (Mitch), Том Дэвис, Джоэль Коисси (Passer-by), Джей Симпсон (Neil), Harley Sylvester (Adam), Майкл Чепмен (Hooligan at the bar)

ОПИСАНИЕ:
История о кланах и фирмах на юго-востоке Лондона, из-за которых между двумя поколениями разгорелся жестокий конфликт.

  • Мировая премьера:24 июня 2014

    ТЕХ.ДАННЫЕ:
    Качество: HDRip
    Формат: AVI
    Видео кодек: XviD
    Аудио кодек: AC3
    Видео: XviD, 720x304 (2.35:1), 1789 kbps, 23,976 fps, 0,325 bpp
    Аудио №1: AC3 / 2.0 / 44 kHz / 192 kbps / Russian
    Аудио №2: AC3 / 2.0 / 48 kHz / 192 kbps / English



    Код:

    General
    Complete name                            : D:\Торенты\The.Guvnors.2014.L1.HDRip.avi
    Format                                   : AVI
    Format/Info                              : Audio Video Interleave
    File size                                : 1.45 GiB
    Duration                                 : 1h 34mn
    Overall bit rate                         : 2 187 Kbps
    Writing application                      : VirtualDubMod 1.5.10.3 | www.virtualdub-fr.org || (build 2550/release)
    Writing library                          : VirtualDubMod build 2550/release

    Video
    ID                                       : 0
    Format                                   : MPEG-4 Visual
    Format profile                           : Advanced Simple@L5
    Format settings, BVOP                    : 1
    Format settings, QPel                    : No
    Format settings, GMC                     : No warppoints
    Format settings, Matrix                  : Custom
    Codec ID                                 : XVID
    Codec ID/Hint                            : XviD
    Duration                                 : 1h 34mn
    Bit rate                                 : 1789 Kbps
    Width                                    : 720 pixels
    Height                                   : 304 pixels
    Display aspect ratio                     : 2.35:1
    Frame rate                               : 23.976 fps
    Color space                              : YUV
    Chroma subsampling                       : 4:2:0
    Bit depth                                : 8 bits
    Scan type                                : Progressive
    Compression mode                         : Lossy
    Bits/(Pixel*Frame)                       : 0.325
    Stream size                              : 1.13 GiB (78%)
    Writing library                          : XviD 73

    Audio #1
    ID                                       : 1
    Format                                   : AC-3
    Format/Info                              : Audio Coding 3
    Mode extension                           : CM (complete main)
    Codec ID                                 : 2000
    Duration                                 : 1h 34mn
    Bit rate mode                            : Constant
    Bit rate                                 : 192 Kbps
    Channel(s)                               : 2 channels
    Channel positions                        : Front: L R
    Sampling rate                            : 44.1 KHz
    Bit depth                                : 16 bits
    Compression mode                         : Lossy
    Delay relative to video                  : 2ms
    Stream size                              : 130 MiB (9%)
    Alignment                                : Split accross interleaves

    Audio #2
    ID                                       : 2
    Format                                   : AC-3
    Format/Info                              : Audio Coding 3
    Mode extension                           : CM (complete main)
    Codec ID                                 : 2000
    Duration                                 : 1h 34mn
    Bit rate mode                            : Constant
    Bit rate                                 : 192 Kbps
    Channel(s)                               : 2 channels
    Channel positions                        : Front: L R
    Sampling rate                            : 48.0 KHz
    Bit depth                                : 16 bits
    Compression mode                         : Lossy
    Delay relative to video                  : 29ms
    Stream size                              : 130 MiB (9%)
    Alignment                                : Split accross interleaves

    Скриншоты:


    © Оформление by Ворон
    piratbit.pw



  • Скачать Папаши через торрент https://pic1.kartinco.top/images/61/ordi9.jpg Скачать фильм Папаши через торрент бесплантно в хорошем качестве Е:История о кланах и фирмах на юго-востоке Лондона, из-за которых между двумя поколениями разгорелся жестокий конфликт. Мировая премьера:24 ... 10 10 5
    Торрент: Зарегистрирован [2015-03-24 15:50] · скачан: 325 раз
    Статус: T временная
    Размер: 1.45 GB
    Как cкачать? Как скачать Папаши через торрент | UTorrent

    28-11-2019 20:33  

    Отключить всю рекламу на сайте

    25-03-2015 03:19 Папаши Скачать торрент  

    Вполне смотрибельный фильм, заменили бы главного злодея с бантиковыми губешками на нормального, было бы вообще супер.piratbit.pw



      Дорогой пользователь! Огромная просьба, поблагодарите релизера, оцените раздачу и оставьте свои комментарий, если Вы скачали Папаши через торрент бесплатно! Внесите свою лепту в развитие PiratBit!
      Комментировать посты могут только пользователи прошедшие не сложную регистрацию
      Показать сообщения:    

      Папаши через торрент
      Скачать бесплатно Папаши
      Папаши скачать торрент
      Папаши смотреть онлайн
      Cкачать фильм Папаши бесплатно
      Папаши скачать торрент в хорошем качестве
      Папаши смотреть онлайн бесплатно в хорошем качестве


      Вы не можете начинать темы
      Вы не можете отвечать на сообщения
      Вы не можете редактировать свои сообщения
      Вы не можете удалять свои сообщения
      Вы не можете голосовать в опросах
      Вы не можете прикреплять файлы к сообщениям
      Вы можете скачивать файлы