1 сезон

3 сезон

iTunes

1

iTunes

DUB Netflix

iTunes

13

1 сезон

RePack

30

Deluxe

pack

Легкие деньги

ВАЖНО

ИГРА 18+

pack

RePack

MK11

RePack

jed

RePack

fifa19

RePack

RDR2

RePack

NEED FOR SPEED™ PAYBACK

4 сезон

9 сезон

Бесстыжие 9 сезон

Все сериалы

все сериалы на PB.wtf

RePack

FAR CRY 5

Anonymous, добрый вечер, мы не успеваем до 1 числа собрать деньги на оплату серверов, помогите нам пожалуйста в это трудное время. В качестве благодарности мы отключим Вам всю рекламу на сайте (укажите свой ник в строку Ваше имя)!

×
  
Magnet ссылка

Предательство / Bloedlink (Йорам Люрсен ) [2014, триллер, DVDRip, Любительский (двухголосый) [den904, DeadSno] piratbit.pw

Предательство через торрент piratbit.pw

Размер: 1.37 GB | Добавлен: 6 лет 2 мес. назад | Торрент скачан:206 раз
Скачать  

23-03-2015 10:00 Предательство Скачать торрент  


Предательство / Bloedlink


ИНФОРМАЦИЯ:
Год выпуска:2014
Страна: Нидерланды
Жанр: триллер
Продолжительность: 01:27:51
Перевод: Любительский (двухголосый) [den904, DeadSno]
Режиссер: Йорам Люрсен

В Ролях:

Тиго Гернандт (Victor), Марван Кензари (Rico), Сара Хронис (Laura Temming)

ОПИСАНИЕ:
Двое бывших заключенных, подружившихся в тюрьме, решают заработать легких денег. В журнале о самых богатых людях, они отыскивают богатея с легкомысленной красавицей-дочкой и похищают ее. Но девица оказывается той еще хитрой стервой и удержать ее на месте не так-то легко. Мало того, ее поведение вносит раздор между подельщиками...

  • Мировая премьера:24 сентября 2014

    ТЕХ.ДАННЫЕ:
    Качество: DVDRip
    Формат: AVI
    Видео кодек: XviD
    Аудио кодек: AC3
    Видео: XviD, 720x304 (2.35:1), 2025 kbps, 25 fps, 0,354 bpp
    Аудио: AC3 / 2.0 / 48 kHz / 192 kbps / 16 bit



    Код:

    General
    Complete name                            : D:\Торенты\Bloedlink.2014.L2.DVDRip.1400MB.avi
    Format                                   : AVI
    Format/Info                              : Audio Video Interleave
    File size                                : 1.37 GiB
    Duration                                 : 1h 27mn
    Overall bit rate                         : 2 226 Kbps
    Writing application                      : VirtualDubMod 1.5.10.3 | www.virtualdub-fr.org || (build 2550/release)
    Writing library                          : VirtualDubMod build 2550/release

    Video
    ID                                       : 0
    Format                                   : MPEG-4 Visual
    Format profile                           : Advanced Simple@L5
    Format settings, BVOP                    : 1
    Format settings, QPel                    : No
    Format settings, GMC                     : No warppoints
    Format settings, Matrix                  : Custom
    Codec ID                                 : XVID
    Codec ID/Hint                            : XviD
    Duration                                 : 1h 27mn
    Bit rate                                 :  2025 Kbps
    Width                                    : 720 pixels
    Height                                   : 304 pixels
    Display aspect ratio                     : 2.35:1
    Frame rate                               : 25.000 fps
    Color space                              : YUV
    Chroma subsampling                       : 4:2:0
    Bit depth                                : 8 bits
    Scan type                                : Progressive
    Compression mode                         : Lossy
    Bits/(Pixel*Frame)                       : 0.354
    Stream size                              : 1.19 GiB (87%)
    Writing library                          : XviD 73

    Audio
    ID                                       : 1
    Format                                   : AC-3
    Format/Info                              : Audio Coding 3
    Mode extension                           : CM (complete main)
    Codec ID                                 : 2000
    Duration                                 : 1h 27mn
    Bit rate mode                            : Constant
    Bit rate                                 : 192 Kbps
    Channel(s)                               : 2 channels
    Channel positions                        : Front: L R
    Sampling rate                            : 48.0 KHz
    Bit depth                                : 16 bits
    Compression mode                         : Lossy
    Stream size                              : 121 MiB (9%)
    Alignment                                : Split accross interleaves

    Скриншоты:


    © Оформление by Ворон
    piratbit.pw



  • Скачать Предательство через торрент https://pic1.kartinco.top/images/61/ordi9.jpg Скачать фильм Предательство через торрент бесплантно в хорошем качестве Е:Двое бывших заключенных, подружившихся в тюрьме, решают заработать легких денег. В журнале о самых богатых людях, они отыскивают богатея ... 9.8 10 4
    Торрент: Зарегистрирован [2015-03-23 10:00] · скачан: 206 раз
    Статус: T временная
    Размер: 1.37 GB
    Как cкачать? Как скачать Предательство через торрент | UTorrent



    Последний раз редактировалось: Ворон (2015-03-23 10:04), всего редактировалось 1 раз

    28-11-2019 20:33  

    Отключить всю рекламу на сайте


    23-03-2015 10:03 Предательство Скачать торрент  

    кто скажет как фильм стоит заберать ?piratbit.pw



    23-03-2015 12:11 Предательство Скачать торрент  

    yespiratbit.pw



      Дорогой пользователь! Огромная просьба, поблагодарите релизера, оцените раздачу и оставьте свои комментарий, если Вы скачали Предательство через торрент бесплатно! Внесите свою лепту в развитие PiratBit!
      Комментировать посты могут только пользователи прошедшие не сложную регистрацию
      Показать сообщения:    

      Предательство через торрент
      Скачать бесплатно Предательство
      Предательство скачать торрент
      Предательство смотреть онлайн
      Cкачать фильм Предательство бесплатно
      Предательство скачать торрент в хорошем качестве
      Предательство смотреть онлайн бесплатно в хорошем качестве


      Вы не можете начинать темы
      Вы не можете отвечать на сообщения
      Вы не можете редактировать свои сообщения
      Вы не можете удалять свои сообщения
      Вы не можете голосовать в опросах
      Вы не можете прикреплять файлы к сообщениям
      Вы можете скачивать файлы