1 сезон

3 сезон

iTunes

1

iTunes

DUB Netflix

iTunes

13

1 сезон

RePack

30

Deluxe

pack

Легкие деньги

ВАЖНО

ИГРА 18+

pack

RePack

MK11

RePack

jed

RePack

fifa19

RePack

RDR2

RePack

NEED FOR SPEED™ PAYBACK

4 сезон

9 сезон

Бесстыжие 9 сезон

Все сериалы

все сериалы на PB.wtf

RePack

FAR CRY 5

Anonymous, доброй ночи, мы не успеваем до 1 числа собрать деньги на оплату серверов, помогите нам пожалуйста в это трудное время. В качестве благодарности мы отключим Вам всю рекламу на сайте (укажите свой ник в строку Ваше имя)!

×
  
Magnet ссылка

Ледниковый период / Age of Ice (Emile Edwin Smith ) [2014, фантастика, приключения, HDRip, Любительский (одноголосый) [Xixidok] piratbit.pw

Ледниковый период через торрент piratbit.pw

Размер: 1.18 GB | Добавлен: 6 лет 2 мес. назад | Торрент скачан:321 раз
Скачать  

23-03-2015 09:39 Ледниковый период Скачать торрент  


Ледниковый период / Age of Ice


ИНФОРМАЦИЯ:
Год выпуска:2014
Страна: США
Жанр: фантастика, приключения
Продолжительность: 01:24:39
Перевод: Любительский (одноголосый) [Xixidok]Перевод текста Barin101,
Режиссер: Emile Edwin Smith

В Ролях:


Barton Bund (Jack Jones), Бэйли Спрай (Amber Jones), Жуль Хартли (Diane Jones), Owais Ahmed (Tariq), Джо Киприано (Dylan Jones), Yaron Urbas (Captain Kawar), Васим Но’мани (Captain Mubarak), Ревон Юсиф (Lieutenant Majali), Али Эмин (Moshi), Wilfried Capet (Simon), Sue Dankha (Isis), Лука Беллоив (X.O.)

ОПИСАНИЕ:
Глобальные землетрясения сдвинули на земле какую то тектоническую плиту, в результате которой на планету обрушились холода. Американская семья пытается убраться подальше от холода, проезжая мимо бедных верблюдов, мерзнувших в погребенной под снегом, пустыне Сахара.

  • Мировая премьера:9 декабря 2014

    ТЕХ.ДАННЫЕ:
    Качество: HDRip
    Формат: AVI
    Видео кодек: XviD
    Аудио кодек: MP3
    Видео: XviD, 720x400 (16:9), 1796 kbps, 23,976 fps, 0,249 bpp
    Аудио: MP3 / 2.0 / 44 kHz / 192 kbps /



    Код:

    General
    Complete name                            : D:\Торенты\Age.of.Ice.2014.HDRip.Xixidok.avi
    Format                                   : AVI
    Format/Info                              : Audio Video Interleave
    File size                                : 1.18 GiB
    Duration                                 : 1h 24mn
    Overall bit rate                         : 1 998 Kbps
    Writing application                      : VirtualDubMod 1.5.10.3 (build 2550/release)
    Writing library                          : VirtualDubMod build 2550/release

    Video
    ID                                       : 0
    Format                                   : MPEG-4 Visual
    Format profile                           : Advanced Simple@L5
    Format settings, BVOP                    : 2
    Format settings, QPel                    : No
    Format settings, GMC                     : No warppoints
    Format settings, Matrix                  : Default (H.263)
    Muxing mode                              : Packed bitstream
    Codec ID                                 : XVID
    Codec ID/Hint                            : XviD
    Duration                                 : 1h 24mn
    Bit rate                                 : 1796 Kbps
    Width                                    : 720 pixels
    Height                                   : 400 pixels
    Display aspect ratio                     : 16:9
    Frame rate                               : 23.976 fps
    Color space                              : YUV
    Chroma subsampling                       : 4:2:0
    Bit depth                                : 8 bits
    Scan type                                : Progressive
    Compression mode                         : Lossy
    Bits/(Pixel*Frame)                       : 0.249
    Stream size                              : 1.02 GiB (86%)
    Writing library                          : XviD 64

    Audio
    ID                                       : 1
    Format                                   : MPEG Audio
    Format version                           : Version 1
    Format profile                           : Layer 3
    Codec ID                                 : 55
    Codec ID/Hint                            : MP3
    Duration                                 : 1h 24mn
    Bit rate mode                            : Constant
    Bit rate                                 : 192 Kbps
    Channel(s)                               : 2 channels
    Sampling rate                            : 44.1 KHz
    Compression mode                         : Lossy
    Stream size                              : 116 MiB (10%)
    Alignment                                : Split accross interleaves

    Скриншоты:


    © Оформление by Ворон
    piratbit.pw



  • Скачать Ледниковый период через торрент https://pic1.kartinco.top/images/61/ordi9.jpg Скачать фильм Ледниковый период через торрент бесплантно в хорошем качестве Е:Глобальные землетрясения сдвинули на земле какую то тектоническую плиту, в результате которой на планету обрушились холода. Американская ... 8.3 10 12
    Торрент: Зарегистрирован [2015-03-23 09:39] · скачан: 321 раз
    Статус: T временная
    Размер: 1.18 GB
    Как cкачать? Как скачать Ледниковый период через торрент | UTorrent

    % Раздел Тема Автор DL S | L
    Научно-популярные фильмы [ 1.73 GB ] Мамонты. Гиганты ледникового периода / Mammoths: Giants of the Ice Age [2014 Документальный научно-познавательный история HDTVRip 720p ] Armstrong Скачать
    2 | 0
    3D Мультфильмы [ 46.61 GB ] Ледниковый период 3: Эра динозавров 3Д / Ice Age: Dawn of the Dinosaurs 3D [2009 мультфильм Blu-ray 1080pBD3D] () читерас Скачать
    1 | 0
    3D Мультфильмы [ 11.3 GB ] Ледниковый период 3: Эра динозавров / Ice Age: Dawn of the Dinosaurs [2009 мультфильм BDRip Anaglyph red'cyan] serega768 Скачать
    1 | 0
    3D Мультфильмы [ 1.32 GB ] Ледниковый период 3: Эра динозавров - 3D / Ice Age: Dawn of the Dinosaurs - 3D [2009 DVDRip] Anaglyph red'cyan slaventi-69 Скачать
    1 | 0
    Иностранные мультфильмы [ 1.36 GB ] Ледниковый период 3: Эра динозавров / Ice Age: Dawn of the Dinosaurs [2009 мультфильм DVDRip] paul08 Скачать
    2 | 0
    Иностранные мультфильмы [ 746 MB ] Ледниковый период 3: Эра динозавров / Ice Age: Dawn of the Dinosaurs [2009 мультфильм BDRip лицензия] ACFIORENTINA Скачать
    1 | 0
    Аркады [ 1.39 GB ] Ледниковый период 3: Эра динозавров / Ice Age: Dawn of the Dinosaurs dimon1695 Скачать
    1 | 0

    28-11-2019 20:33  

    Отключить всю рекламу на сайте

    23-03-2015 10:20 Ледниковый период Скачать торрент  

    Негр на первом скрине явно переигрывает!Не верю!piratbit.pw



    23-03-2015 10:26 Ледниковый период Скачать торрент  

    как фильмец?piratbit.pw



    23-03-2015 11:09 Ледниковый период Скачать торрент  

    а я посмотрю, наверно )piratbit.pw





    Последний раз редактировалось: Яниr (2015-03-23 12:25), всего редактировалось 1 раз

    23-03-2015 12:12 Ледниковый период Скачать торрент  

    очередной "шедевр" от асилум??piratbit.pw



    25-03-2015 22:47 Ледниковый период Скачать торрент  

    на 5 скине, явно у проституток были, все в помаде и лежат отдыхают!)))piratbit.pw



    28-03-2015 16:30 Ледниковый период Скачать торрент  

    ser-dobrosov писал(а):

    на 5 скине, явно у проституток были, все в помаде и лежат отдыхают!)))

    У суровых Челябинских проституток piratbit.pw



    29-03-2015 03:18 Ледниковый период Скачать торрент  

    таки-да, это все-таки Global Asylum))) соответственно - IMDb: 1.80 (1082)
    верблюдов действительно жалко))piratbit.pw



      Дорогой пользователь! Огромная просьба, поблагодарите релизера, оцените раздачу и оставьте свои комментарий, если Вы скачали Ледниковый период через торрент бесплатно! Внесите свою лепту в развитие PiratBit!
      Комментировать посты могут только пользователи прошедшие не сложную регистрацию
      Показать сообщения:    

      Ледниковый период через торрент
      Скачать бесплатно Ледниковый период
      Ледниковый период скачать торрент
      Ледниковый период смотреть онлайн
      Cкачать фильм Ледниковый период бесплатно
      Ледниковый период скачать торрент в хорошем качестве
      Ледниковый период смотреть онлайн бесплатно в хорошем качестве


      Вы не можете начинать темы
      Вы не можете отвечать на сообщения
      Вы не можете редактировать свои сообщения
      Вы не можете удалять свои сообщения
      Вы не можете голосовать в опросах
      Вы не можете прикреплять файлы к сообщениям
      Вы можете скачивать файлы