1 сезон

3 сезон

iTunes

1

iTunes

DUB Netflix

iTunes

13

1 сезон

RePack

30

Deluxe

pack

Легкие деньги

ВАЖНО

ИГРА 18+

pack

RePack

MK11

RePack

jed

RePack

fifa19

RePack

RDR2

RePack

NEED FOR SPEED™ PAYBACK

4 сезон

9 сезон

Бесстыжие 9 сезон

Все сериалы

все сериалы на PB.wtf

RePack

FAR CRY 5

Anonymous, добрый вечер, мы не успеваем до 1 числа собрать деньги на оплату серверов, помогите нам пожалуйста в это трудное время. В качестве благодарности мы отключим Вам всю рекламу на сайте (укажите свой ник в строку Ваше имя)!

×
  
Magnet ссылка

Пазолини / Pasolini (Абель Феррара ) [2014, драма, биография, DVDRip, Любительский (одноголосый)[Kirill Ivanov] piratbit.pw

Пазолини через торрент piratbit.pw

Размер: 1.37 GB | Добавлен: 6 лет 2 мес. назад | Торрент скачан:39 раз
Скачать  

22-03-2015 20:26 Пазолини Скачать торрент  


Пазолини / Pasolini


ИНФОРМАЦИЯ:
Год выпуска:2014
Страна: Франция, Бельгия, Италия
Жанр: драма, биография
Продолжительность: 01:21:25
Перевод: Любительский (одноголосый)[Kirill Ivanov]
Режиссер: Абель Феррара

В Ролях:


Уиллем Дефо (Pier Paolo Pasolini), Риккардо Скамарчио (Ninetto Davoli), Нинетто Даволи (Epifanio), Валерио Мастандреа (Nico Naldini), Мария де Медейруш (Laura Betti), Адриана Асти (Susanna Pasolini), Франческо Сичильяно (Furio Colombo), Андреа Боска (Andrea Fago), Джада Колагранде (Graziella Chiarcossi), Damiano Tamilia (Pino Pelosi), Роберто Дзибетти (Carlo), Сальваторе Руокко (Politician)

ОПИСАНИЕ:
История последних дней жизни итальянского режиссера Пьера Паоло Пазолини.

  • Мировая премьера:4 сентября 2014

    ТЕХ.ДАННЫЕ:
    Качество: DVDRip
    Формат: AVI
    Видео кодек: XviD
    Аудио кодек: AC3
    Видео: XviD, 720x384 (1.875), 1943 kbps, 25 fps, 0,268 bpp
    Аудио №1: AC3 / 2.0 / 44 kHz / 192 kbps /Русский
    Аудио №2: AC3 / 2.0 / 48 kHz / 256 kbps / итальянский



    Код:

    General
    Complete name                            : D:\Торенты\Pasolini.2014.L1.DVDRip.avi
    Format                                   : AVI
    Format/Info                              : Audio Video Interleave
    File size                                : 1.37 GiB
    Duration                                 : 1h 21mn
    Overall bit rate                         : 2 405 Kbps
    Writing application                      : VirtualDubMod 1.5.10.3 | www.virtualdub-fr.org || (build 2550/release)
    Writing library                          : VirtualDubMod build 2550/release

    Video
    ID                                       : 0
    Format                                   : MPEG-4 Visual
    Format profile                           : Advanced Simple@L5
    Format settings, BVOP                    : 1
    Format settings, QPel                    : No
    Format settings, GMC                     : No warppoints
    Format settings, Matrix                  : Default (MPEG)
    Codec ID                                 : XVID
    Codec ID/Hint                            : XviD
    Duration                                 : 1h 21mn
    Bit rate                                 : 1943 Kbps
    Width                                    : 720 pixels
    Height                                   : 384 pixels
    Display aspect ratio                     : 1.875
    Frame rate                               : 25.000 fps
    Color space                              : YUV
    Chroma subsampling                       : 4:2:0
    Bit depth                                : 8 bits
    Scan type                                : Progressive
    Compression mode                         : Lossy
    Bits/(Pixel*Frame)                       : 0.268
    Stream size                              : 1.05 GiB (77%)
    Writing library                          : XviD 1.2.1 (UTC 2008-12-04)

    Audio #1
    ID                                       : 1
    Format                                   : AC-3
    Format/Info                              : Audio Coding 3
    Codec ID                                 : 2000
    Duration                                 : 1h 21mn
    Bit rate mode                            : Constant
    Bit rate                                 : 192 Kbps
    Channel(s)                               : 2 channels
    Sampling rate                            : 44.1 KHz
    Compression mode                         : Lossy
    Stream size                              : 112 MiB (8%)
    Alignment                                : Split accross interleaves

    Audio #2
    ID                                       : 2
    Format                                   : AC-3
    Format/Info                              : Audio Coding 3
    Mode extension                           : CM (complete main)
    Codec ID                                 : 2000
    Duration                                 : 1h 21mn
    Bit rate mode                            : Constant
    Bit rate                                 : 256 Kbps
    Channel(s)                               : 2 channels
    Channel positions                        : Front: L R
    Sampling rate                            : 48.0 KHz
    Bit depth                                : 16 bits
    Compression mode                         : Lossy
    Stream size                              : 149 MiB (11%)
    Alignment                                : Split accross interleaves

    Скриншоты:


    © Оформление by Ворон
    piratbit.pw



  • Скачать Пазолини через торрент https://pic1.kartinco.top/images/61/ordi9.jpg Скачать фильм Пазолини через торрент бесплантно в хорошем качестве Е:История последних дней жизни итальянского режиссера Пьера Паоло Пазолини. Мировая премьера:4 сентября 2014 ТЕХ.ДАННЫЕ: ... 10 10 1
    Торрент: Зарегистрирован [2015-03-22 20:26] · скачан: 39 раз
    Статус: T временная
    Размер: 1.37 GB
    Как cкачать? Как скачать Пазолини через торрент | UTorrent

    % Раздел Тема Автор DL S | L
    Фильмы без перевода [ 1.37 GB ] Пазолини / Pasolini [2014 биография DVDRip / Sub] Ворон Скачать
    1 | 0
    Порно фильмы DVD [ 18.83 GB ] Pier Paolo Pasolini - Trilogy of life / Пьер Паоло Пазолини - Трилогия жизни [970-1974. 3x DVD9] Majestro Скачать
    1 | 0

    28-11-2019 20:33  

    Отключить всю рекламу на сайте

      Дорогой пользователь! Огромная просьба, поблагодарите релизера, оцените раздачу и оставьте свои комментарий, если Вы скачали Пазолини через торрент бесплатно! Внесите свою лепту в развитие PiratBit!
      Комментировать посты могут только пользователи прошедшие не сложную регистрацию
      Показать сообщения:    

      Пазолини через торрент
      Скачать бесплатно Пазолини
      Пазолини скачать торрент
      Пазолини смотреть онлайн
      Cкачать фильм Пазолини бесплатно
      Пазолини скачать торрент в хорошем качестве
      Пазолини смотреть онлайн бесплатно в хорошем качестве


      Вы не можете начинать темы
      Вы не можете отвечать на сообщения
      Вы не можете редактировать свои сообщения
      Вы не можете удалять свои сообщения
      Вы не можете голосовать в опросах
      Вы не можете прикреплять файлы к сообщениям
      Вы можете скачивать файлы