1 сезон

3 сезон

iTunes

1

iTunes

DUB Netflix

iTunes

13

1 сезон

RePack

30

Deluxe

pack

Легкие деньги

ВАЖНО

ИГРА 18+

pack

RePack

MK11

RePack

jed

RePack

fifa19

RePack

RDR2

RePack

NEED FOR SPEED™ PAYBACK

4 сезон

9 сезон

Бесстыжие 9 сезон

Все сериалы

все сериалы на PB.wtf

RePack

FAR CRY 5

Anonymous, добрый вечер, мы не успеваем до 1 числа собрать деньги на оплату серверов, помогите нам пожалуйста в это трудное время. В качестве благодарности мы отключим Вам всю рекламу на сайте (укажите свой ник в строку Ваше имя)!

×
  
Magnet ссылка

Клуб бунтарей / The Riot Club (Лоне Шерфиг / Lone Scherfig) [2014, Великобритания, триллер, драма, HDRip] DVO [Артём Белоконский & Анжелика Чумакова] piratbit.pw

Клуб бунтарей через торрент piratbit.pw

Размер: 1.37 GB | Добавлен: 6 лет 3 мес. назад | Торрент скачан:360 раз
Скачать  

20-03-2015 12:03 Клуб бунтарей Скачать торрент  

Клуб бунтарей / The Riot Club


  • Год выпуска: 2014
  • Страна: Великобритания
  • Жанр: триллер, драма
  • Продолжительность: 01:47:00
  • Перевод: Любительский (двухголосый)[Артём Белоконский & Анжелика Чумакова]

  • Режиссер: Лоне Шерфиг / Lone Scherfig
  • В ролях:

    Сэм Клафлин (Alistair Ryle), Натали Дормер (Charlie), Джессика Браун-Финдли (Rachel), Дуглас Бут (Harry Villiers), Макс Айронс (Miles Richards), Холлидей Грейнджер (Lauren), Том Холландер (Jeremy), Сэм Рид (Hugo Fraser-Tyrwhitt), Бен Шнетцер (Dimitri Mitropoulos), Олли Александр (Toby Maitland), Фредди Фокс (James Leighton-Masters), Тони Вэй (Mugger)

  • Описание:
    Студент - первокурсник Оксфордского университета вступает в пользующийся дурной славой Клуб бунтарей. Здесь, за один вечер, можно создать или разрушить репутацию на годы вперёд.
  • Рейтинг:



  • Качество: HDRip
  • Формат: :AVI
  • Видео кодек: XviD
  • Аудио кодек: AC3
  • Видео: 720x304 (2.35:1), 1376 kbps, 23,976 fps, 0,262 bpp
  • Аудио: 5.1 / 48 kHz / 448 kbps / 16 bit
  • Релиз от: GEKADOL

    Код:

    General
    Complete name                            : F:\The.Riot.Club.2014.L2.HDRip.1400Mb.avi
    Format                                   : AVI
    Format/Info                              : Audio Video Interleave
    File size                                : 1.37 GiB
    Duration                                 : 1h 47mn
    Overall bit rate                         : 1 834 Kbps
    Writing application                      : VirtualDubMod 1.5.10.2 (build 2540/release)
    Writing library                          : VirtualDubMod build 2540/release

    Video
    ID                                       : 0
    Format                                   : MPEG-4 Visual
    Format profile                           : Advanced Simple@L5
    Format settings, BVOP                    : 2
    Format settings, QPel                    : No
    Format settings, GMC                     : No warppoints
    Format settings, Matrix                  : Default (MPEG)
    Codec ID                                 : XVID
    Codec ID/Hint                            : XviD
    Duration                                 : 1h 47mn
    Bit rate                                 : 1 377 Kbps
    Width                                    : 720 pixels
    Height                                   : 304 pixels
    Display aspect ratio                     : 2.35:1
    Frame rate                               : 23.976 fps
    Color space                              : YUV
    Chroma subsampling                       : 4:2:0
    Bit depth                                : 8 bits
    Scan type                                : Progressive
    Compression mode                         : Lossy
    Bits/(Pixel*Frame)                       : 0.262
    Stream size                              : 1.03 GiB (75%)
    Writing library                          : XviD 1.2.1 (UTC 2008-12-04)

    Audio
    ID                                       : 1
    Format                                   : AC-3
    Format/Info                              : Audio Coding 3
    Mode extension                           : CM (complete main)
    Codec ID                                 : 2000
    Duration                                 : 1h 47mn
    Bit rate mode                            : Constant
    Bit rate                                 : 448 Kbps
    Channel(s)                               : 6 channels
    Channel positions                        : Front: L C R, Side: L R, LFE
    Sampling rate                            : 48.0 KHz
    Bit depth                                : 16 bits
    Compression mode                         : Lossy
    Stream size                              : 343 MiB (24%)
    Alignment                                : Split accross interleaves
    Interleave, duration                     : 42 ms (1.00 video frame)
    Interleave, preload duration             : 500 ms




    Скриншоты:



    piratbit.pw



  • Скачать Клуб бунтарей через торрент http://i6.imageban.ru/out/2015/03/20/b4ceae5a9450664eb3885c75ea85363a.jpg Скачать фильм Клуб бунтарей через торрент бесплантно в хорошем качестве Описание: Студент - первокурсник Оксфордского университета вступает в пользующийся дурной славой Клуб бунтарей. Здесь, за один вечер, можно ... 10 10 4
    Торрент: Зарегистрирован [2015-03-20 12:03] · скачан: 360 раз
    Статус: T временная
    Размер: 1.37 GB
    Как cкачать? Как скачать Клуб бунтарей через торрент | UTorrent

    % Раздел Тема Автор DL S | L
    T Фильмы [HD 720p, 1080p] (Звук Cam, VO, DVO) [ 5.98 GB ] Клуб бунтарей / The Riot Club [2014 BDRip 720p] DVO [Артём Белоконский & Анжелика Чумакова] + ENG GEKADOL Скачать
    1 | 0

    28-11-2019 20:33  

    Отключить всю рекламу на сайте


      Дорогой пользователь! Огромная просьба, поблагодарите релизера, оцените раздачу и оставьте свои комментарий, если Вы скачали Клуб бунтарей через торрент бесплатно! Внесите свою лепту в развитие PiratBit!
      Комментировать посты могут только пользователи прошедшие не сложную регистрацию
      Показать сообщения:    

      Клуб бунтарей через торрент
      Скачать бесплатно Клуб бунтарей
      Клуб бунтарей скачать торрент
      Клуб бунтарей смотреть онлайн
      Cкачать фильм Клуб бунтарей бесплатно
      Клуб бунтарей скачать торрент в хорошем качестве
      Клуб бунтарей смотреть онлайн бесплатно в хорошем качестве


      Вы не можете начинать темы
      Вы не можете отвечать на сообщения
      Вы не можете редактировать свои сообщения
      Вы не можете удалять свои сообщения
      Вы не можете голосовать в опросах
      Вы не можете прикреплять файлы к сообщениям
      Вы можете скачивать файлы