1 сезон

3 сезон

iTunes

1

iTunes

DUB Netflix

iTunes

13

1 сезон

RePack

30

Deluxe

pack

Легкие деньги

ВАЖНО

ИГРА 18+

pack

RePack

MK11

RePack

jed

RePack

fifa19

RePack

RDR2

RePack

NEED FOR SPEED™ PAYBACK

4 сезон

9 сезон

Бесстыжие 9 сезон

Все сериалы

все сериалы на PB.wtf

RePack

FAR CRY 5

Anonymous, добрый вечер, мы не успеваем до 1 числа собрать деньги на оплату серверов, помогите нам пожалуйста в это трудное время. В качестве благодарности мы отключим Вам всю рекламу на сайте (укажите свой ник в строку Ваше имя)!

×
  
Magnet ссылка

Вернись ко мне / Come Back to Me (Пол Лейден / Paul Leyden) [2014, США, ужасы, DVDRip) VO [Viruse Project] piratbit.pw

Вернись ко мне через торрент piratbit.pw

Размер: 746 MB | Добавлен: 6 лет 3 мес. назад | Торрент скачан:323 раза
Скачать  

17-03-2015 01:39 Вернись ко мне Скачать торрент  

Вернись ко мне / Come Back to Me


  • Год выпуска: 2014
  • Страна: США
  • Жанр: ужасы
  • Продолжительность: 01:35:05
  • Перевод: Одноголосый закадровый [Viruse Project]

  • Режиссер: Пол Лейден / Paul Leyden
  • В ролях:

    Кэролайн Клементс (Checkout Girl), Лаура Гордон (Leslie), Нэйтан Кийес (Dale), Мэтт Пассмор (Josh), Brian Patacca (Doctor), Стив Риззо (Meth Addict Father), Alexandra Straus (Girl Who Dies in Grocery Store), Кэти Уолдер (Sarah), Мойра Уэст (Eileen)

  • Описание:
    Приходя в себя после автокатастрофы, молодожены Сара и Джош обнаруживают, что в доме по соседству поселился чудаковатый парень по имени Дел. Сразу после этого каждую ночь Сару стали преследовать кошмары, в которых ее с мужем жестоко убивают, а по утру их дом просто сверкает чистотой. Пытаясь разобраться в ситуации, Сара начинает подозревать, что умирает каждую ночь она не только во сне...
    Фильм снят по роману Рэта Джеймса Уайта “Resurrectionist”.
  • Рейтинг:



  • Качество: DVDRip
  • Формат: :AVI
  • Видео кодек: XviD
  • Аудио кодек: MP3
  • Видео: 640x272 (2.35:1), 895 kbps, 23,976 fps, 0,215 bpp
  • Аудио: 2.0 / 48 kHz / 192 kbps
  • Релиз от: GEKADOL

    Код:

    General
    Complete name                            : I:\Come.Back.To.Me.2014.DVDRip.ViruseProject.avi
    Format                                   : AVI
    Format/Info                              : Audio Video Interleave
    File size                                : 746 MiB
    Duration                                 : 1h 35mn
    Overall bit rate                         : 1 097 Kbps
    Writing application                      : VirtualDubMod 1.5.10.2 (build 2540/release)
    Writing library                          : VirtualDubMod build 2540/release

    Video
    ID                                       : 0
    Format                                   : MPEG-4 Visual
    Format profile                           : Advanced Simple@L5
    Format settings, BVOP                    : 2
    Format settings, QPel                    : No
    Format settings, GMC                     : No warppoints
    Format settings, Matrix                  : Default (H.263)
    Codec ID                                 : XVID
    Codec ID/Hint                            : XviD
    Duration                                 : 1h 35mn
    Bit rate                                 : 896 Kbps
    Width                                    : 640 pixels
    Height                                   : 272 pixels
    Display aspect ratio                     : 2.35:1
    Frame rate                               : 23.976 fps
    Color space                              : YUV
    Chroma subsampling                       : 4:2:0
    Bit depth                                : 8 bits
    Scan type                                : Progressive
    Compression mode                         : Lossy
    Bits/(Pixel*Frame)                       : 0.215
    Stream size                              : 609 MiB (82%)
    Writing library                          : XviD 1.2.1 (UTC 2008-12-04)

    Audio
    ID                                       : 1
    Format                                   : MPEG Audio
    Format version                           : Version 1
    Format profile                           : Layer 3
    Mode                                     : Joint stereo
    Mode extension                           : MS Stereo
    Codec ID                                 : 55
    Codec ID/Hint                            : MP3
    Duration                                 : 1h 35mn
    Bit rate mode                            : Constant
    Bit rate                                 : 192 Kbps
    Channel(s)                               : 2 channels
    Sampling rate                            : 48.0 KHz
    Compression mode                         : Lossy
    Stream size                              : 131 MiB (17%)
    Alignment                                : Aligned on interleaves
    Interleave, duration                     : 42 ms (1.00 video frame)
    Interleave, preload duration             : 504 ms




    Скриншоты:



    piratbit.pw



  • Скачать Вернись ко мне через торрент http://i63.fastpic.ru/big/2015/0317/b4/93d202ff4a7cb252f99d2c6a7f54feb4.jpg Скачать фильм Вернись ко мне через торрент бесплантно в хорошем качестве Описание: Приходя в себя после автокатастрофы, молодожены Сара и Джош обнаруживают, что в доме по соседству поселился чудаковатый парень по ... 8.5 10 11
    Торрент: Зарегистрирован [2015-03-17 01:39] · скачан: 323 раз
    Статус: T временная
    Размер: 746 MB
    Как cкачать? Как скачать Вернись ко мне через торрент | UTorrent

    % Раздел Тема Автор DL S | L
    T Фильмы 2014 (Звук TS, Cam, VO, DVO) [ 1.38 GB ] Вернись ко мне / Come Back to Me [2014 DVDRip) VO [Viruse Project] Ворон Скачать
    1 | 0

    28-11-2019 20:33  

    Отключить всю рекламу на сайте

    20-03-2015 12:03 Вернись ко мне Скачать торрент  

    Мне понравился!!! Триллер по большему счету, а не ужасы. Задумка и сюжетность на 10 из 10. Чуть затянут. Финал порадовал!!! Короче 9 из 10
    Лучше бы главную героиню сыграла какая нибудь другая актриса!
    Приятного просмотра!piratbit.pw



      Дорогой пользователь! Огромная просьба, поблагодарите релизера, оцените раздачу и оставьте свои комментарий, если Вы скачали Вернись ко мне через торрент бесплатно! Внесите свою лепту в развитие PiratBit!
      Комментировать посты могут только пользователи прошедшие не сложную регистрацию
      Показать сообщения:    

      Вернись ко мне через торрент
      Скачать бесплатно Вернись ко мне
      Вернись ко мне скачать торрент
      Вернись ко мне смотреть онлайн
      Cкачать фильм Вернись ко мне бесплатно
      Вернись ко мне скачать торрент в хорошем качестве
      Вернись ко мне смотреть онлайн бесплатно в хорошем качестве


      Вы не можете начинать темы
      Вы не можете отвечать на сообщения
      Вы не можете редактировать свои сообщения
      Вы не можете удалять свои сообщения
      Вы не можете голосовать в опросах
      Вы не можете прикреплять файлы к сообщениям
      Вы можете скачивать файлы