Marvel's Avengers Deluxe Edition (супер цена) 159р. Внимание количество ограничено!!!

2 сезон

iTunes

iTunes

1

iTunes

iTunes

iTunes

WEBRip

iTunes

30
pack

Новость дня

ВАЖНО

!!Акция!!

Alien_RageХит недели

RePack

Horizon Zero Dawn

ИГРА 18+

pack

RePack

jed

!!Акция!!

Alien_Rage

RePack

fifa19

RePack

Assassins Creed: Odyssey

RePack

NEED FOR SPEED™ PAYBACK

4 сезон

9 сезон

Бесстыжие 9 сезон

Все сериалы

все сериалы на PB.wtf

RePack

FAR CRY 5
  

Споры (Максим Дьячук ) [2011, ужасы, фантастика, BDRip 1080p] piratbit.pw

Споры через торрент piratbit.pw

Размер: 7.58 GB | Добавлен: 5 лет 6 мес. назад | Торрент скачан:129 раз
Скачать  

16-03-2015 16:38 Споры Скачать торрент  


Споры
«Они не пощадят ни один вид на планете»

ИНФОРМАЦИЯ:
Год выпуска:2011
Страна: США, Россия
Жанр: ужасы, фантастика
Продолжительность: 01:12:33
Перевод: Не требуется
Режиссер: Максим Дьячук

В Ролях:


Наталья Рыбьякова, Олег Бурлаков, Леонид Гусаров, Валерий Кузьменко, Елена Щербакова, Владимир Кокин, Николай Дубков, Валерий Крячек, Илья Козлик, Алёна Дрёмина, Евгений Казанцев

ОПИСАНИЕ:
Группа друзей выезжает из города на пикник, по пути они наталкиваются на старый советский завод. Завод уже давно находится в запустении, что заинтересовало их ещё больше... Но любопытство сталкивает их лицом к лицу с невообразимой опасностью, с ужасными существами. Выясняется, что инопланетные споры, оказавшиеся там вследствии падения на Землю небольшого метеорита, быстро размножаются и приобретают чудовищные формы, когда соприкасаются с любым биологическим видом на планете. Кто из друзей, находящихся под угрозой будет бороться? Кто выживет? И чем всё закончится?

  • Мировая премьера:11 ноября 2011

    ТЕХ.ДАННЫЕ:
    Качество: BDRip 1080p
    Формат: MKV
    Видео кодек: AVC
    Аудио кодек: AC3
    Видео: AVC, 1920x1080 (16:9), 14274 kbps, 25 fps, 0,275 bpp
    Аудио: AC3 / 5.1 / 48 kHz / 384 kbps / 16 bit



    Код:

    General
    Unique ID                                : 233810080675434879513250444450029824166 (0xAFE62EFE43430AD2D1C5422B00C2E8A6)
    Complete name                            : D:\Торенты\Spores-HD.mkv
    Format                                   : Matroska
    Format version                           : Version 2
    File size                                : 7.58 GiB
    Duration                                 : 1h 12mn
    Overall bit rate mode                    : Variable
    Overall bit rate                         : 15.0 Mbps
    Encoded date                             : UTC 2011-11-09 09:35:36
    Writing application                      : TMPGEnc Video Mastering Works 5 Version. 5.0.6.38
    Writing library                          : TMPGEnc Video Mastering Works 5 Version. 5.0.6.38

    Video
    ID                                       : 2
    Format                                   : AVC
    Format/Info                              : Advanced Video Codec
    Format profile                           : High@L4.1
    Format settings, CABAC                   : Yes
    Format settings, ReFrames                : 3 frames
    Codec ID                                 : V_MPEG4/ISO/AVC
    Duration                                 : 1h 12mn
    Bit rate mode                            : Variable
    Bit rate                                 : 14.3 Mbps
    Maximum bit rate                         : 15.0 Mbps
    Width                                    : 1 920 pixels
    Height                                   : 1 080 pixels
    Display aspect ratio                     : 16:9
    Frame rate                               : 25.000 fps
    Standard                                 : NTSC
    Color space                              : YUV
    Chroma subsampling                       : 4:2:0
    Bit depth                                : 8 bits
    Scan type                                : Progressive
    Bits/(Pixel*Frame)                       : 0.275
    Stream size                              : 7.23 GiB (95%)
    Writing library                          : x264 core 114
    Encoding settings                        : cabac=1 / ref=3 / deblock=1:0:0 / analyse=0x3:0x133 / me=umh / subme=9 / psy=1 / psy_rd=1.00:0.00 / mixed_ref=1 / me_range=16 / chroma_me=1 / trellis=2 / 8x8dct=1 / cqm=2 / deadzone=21,11 / fast_pskip=1 / chroma_qp_offset=-2 / threads=6 / sliced_threads=0 / slices=1 / nr=0 / decimate=1 / interlaced=0 / constrained_intra=0 / bframes=3 / b_pyramid=0 / b_adapt=2 / b_bias=0 / direct=3 / weightb=1 / open_gop=0 / weightp=2 / keyint=250 / keyint_min=25 / scenecut=40 / intra_refresh=0 / rc_lookahead=60 / rc=crf / mbtree=1 / crf=1.0 / qcomp=0.60 / qpmin=3 / qpmax=69 / qpstep=4 / vbv_maxrate=15000 / vbv_bufsize=14991 / crf_max=51.0 / nal_hrd=vbr / ip_ratio=1.40 / aq=1:1.00
    Default                                  : Yes
    Forced                                   : No
    Color primaries                          : BT.709-5, BT.1361, IEC 61966-2-4, SMPTE RP177
    Transfer characteristics                 : BT.709-5, BT.1361
    Matrix coefficients                      : BT.709-5, BT.1361, IEC 61966-2-4 709, SMPTE RP177

    Audio
    ID                                       : 1
    Format                                   : AC-3
    Format/Info                              : Audio Coding 3
    Mode extension                           : CM (complete main)
    Codec ID                                 : A_AC3
    Duration                                 : 1h 12mn
    Bit rate mode                            : Constant
    Bit rate                                 : 384 Kbps
    Channel(s)                               : 6 channels
    Channel positions                        : Front: L C R, Side: L R, LFE
    Sampling rate                            : 48.0 KHz
    Bit depth                                : 16 bits
    Compression mode                         : Lossy
    Stream size                              : 199 MiB (3%)
    Default                                  : Yes
    Forced                                   : No

    Скриншоты:


    © Оформление by Ворон
    piratbit.pw



  • Скачать Споры через торрент http://pic.kartinco.top/images/6/ordi9.jpg Скачать фильм Споры через торрент бесплантно в хорошем качестве Е:Группа друзей выезжает из города на пикник, по пути они наталкиваются на старый советский завод. Завод уже давно находится в запустении, ... 5.5 10 10
    Торрент: Зарегистрирован [2015-03-16 16:38] · скачан: 129 раз
    Статус: √ проверено
    Размер: 7.58 GB
    Как cкачать? Как скачать Споры через торрент | qTorrent

    % Раздел Тема Автор DL S | L
    Фантастика [ 619 MB ] Косухина Наталья - О вкусах не спорят о вкусах кричат [Ведьма 2014 128 kbps MP3] govoryn Скачать
    1 | 0
    Документальные фильмы и телепередачи [ 614 MB ] Владимир Высоцкий. "Так оставьте ненужные споры..."/ Фильм о фильме [2011 Документальный. SATRip] МИХА~ Скачать
    1 | 0

    28-11-2019 20:33  

    Отключить всю рекламу на сайте

    16-03-2015 17:06 Споры Скачать торрент  

    Ух ты! Графон в бесплатном приложении для айпадега брали?)piratbit.pw



    17-03-2015 16:58 Споры Скачать торрент  

    На первом скрине ну ваащее не похож на чужого :pleasantry:piratbit.pw



    19-03-2015 04:41 Споры Скачать торрент  

    Некоторые диалоги напоминают:
    А каким файлообменником ты пользуешся?piratbit.pw



      Дорогой пользователь! Огромная просьба, поблагодарите релизера, оцените раздачу и оставьте свои комментарий, если Вы скачали Споры через торрент бесплатно! Внесите свою лепту в развитие PiratBit!
      Комментировать посты могут только пользователи прошедшие не сложную регистрацию
      Показать сообщения:    

      Споры через торрент
      Скачать бесплатно Споры
      Споры скачать торрент
      Споры смотреть онлайн
      Cкачать фильм Споры бесплатно
      Споры скачать торрент в хорошем качестве
      Споры смотреть онлайн бесплатно в хорошем качестве


      Вы не можете начинать темы
      Вы не можете отвечать на сообщения
      Вы не можете редактировать свои сообщения
      Вы не можете удалять свои сообщения
      Вы не можете голосовать в опросах
      Вы не можете прикреплять файлы к сообщениям
      Вы можете скачивать файлы