1 сезон

3 сезон

iTunes

1

iTunes

DUB Netflix

iTunes

13

1 сезон

RePack

30

Deluxe

pack

Легкие деньги

ВАЖНО

ИГРА 18+

pack

RePack

MK11

RePack

jed

RePack

fifa19

RePack

RDR2

RePack

NEED FOR SPEED™ PAYBACK

4 сезон

9 сезон

Бесстыжие 9 сезон

Все сериалы

все сериалы на PB.wtf

RePack

FAR CRY 5

Anonymous, доброй ночи, мы не успеваем до 1 числа собрать деньги на оплату серверов, помогите нам пожалуйста в это трудное время. В качестве благодарности мы отключим Вам всю рекламу на сайте (укажите свой ник в строку Ваше имя)!

×
  
Magnet ссылка

Судный день Дэна / Dannys dommedag (Мартин Барнвитц ) [2014, приключения, семейный, WEB-DLRip, Любительский (двухголосый) [den904, DeadSno] piratbit.pw

Судный день Дэна через торрент piratbit.pw

Размер: 1.36 GB | Добавлен: 6 лет 3 мес. назад | Торрент скачан:245 раз
Скачать  

13-03-2015 14:51 Судный день Дэна Скачать торрент  


Судный день Дэна / Dannys dommedag


ИНФОРМАЦИЯ:
Год выпуска:2014
Страна: Дания
Жанр: приключения, семейный
Продолжительность: 01:24:36
Перевод: Любительский (двухголосый) [den904, DeadSno]
Внимание Присутствует ненормативная лексика!!!
Режиссер: Мартин Барнвитц

В Ролях:


Вилльям Йенк Нильсен (Danny), Thomas Garvey (William), Петер Ганцлер (Adam), Эмили Вернер Земмельрот (Rie), Марко Ильсё (Lukas), Расмус Линд Рубин (Thomas), Ida Emilie Just (Maja), Ларс Миккельсен (Father), Камилла Бендикс (Mother), Thomas L. Corneliussen (Biology teacher), Клаус Флюгаре (Skipper), Эллан Хайд (Fisker)

ОПИСАНИЕ:
Дэнни - обычный датский подросток, с обычными для всех подростков проблемами: притеснениями в школе, ссорами с братом, безответной романтической влюбленностью в одноклассницу. Но однажды все меняется, когда в период аномальной жары, в окрестностях появляются бешеные каннибалы, пожирающие все на своем пути. Но плохо ли это для Дэнни?

  • Мировая премьера:12 сентября 2014

    ТЕХ.ДАННЫЕ:
    Качество: WEB-DLRip
    Формат: AVI
    Видео кодек: XviD
    Аудио кодек: AC3
    Видео: XviD, 720x304 (2.35:1),2107 kbps, 25 fps, 0,368 bpp
    Аудио: AC3 / 2.0 / 48 kHz / 192 kbps / 16 bit



    Код:

    General
    Complete name                            : D:\Торенты\Dannys.dommedag.2014.L2.WEB-DLRip.avi
    Format                                   : AVI
    Format/Info                              : Audio Video Interleave
    File size                                : 1.36 GiB
    Duration                                 : 1h 24mn
    Overall bit rate                         : 2 308 Kbps
    Writing application                      : VirtualDubMod 1.5.10.3 | www.virtualdub-fr.org || (build 2550/release)
    Writing library                          : VirtualDubMod build 2550/release

    Video
    ID                                       : 0
    Format                                   : MPEG-4 Visual
    Format profile                           : Advanced Simple@L5
    Format settings, BVOP                    : 1
    Format settings, QPel                    : No
    Format settings, GMC                     : No warppoints
    Format settings, Matrix                  : Custom
    Codec ID                                 : XVID
    Codec ID/Hint                            : XviD
    Duration                                 : 1h 24mn
    Bit rate                                 : 2107 Kbps
    Width                                    : 720 pixels
    Height                                   : 304 pixels
    Display aspect ratio                     : 2.35:1
    Frame rate                               : 25.000 fps
    Color space                              : YUV
    Chroma subsampling                       : 4:2:0
    Bit depth                                : 8 bits
    Scan type                                : Progressive
    Compression mode                         : Lossy
    Bits/(Pixel*Frame)                       : 0.368
    Stream size                              : 1.19 GiB (87%)
    Writing library                          : XviD 73

    Audio
    ID                                       : 1
    Format                                   : AC-3
    Format/Info                              : Audio Coding 3
    Mode extension                           : CM (complete main)
    Codec ID                                 : 2000
    Duration                                 : 1h 24mn
    Bit rate mode                            : Constant
    Bit rate                                 : 192 Kbps
    Channel(s)                               : 2 channels
    Channel positions                        : Front: L R
    Sampling rate                            : 48.0 KHz
    Bit depth                                : 16 bits
    Compression mode                         : Lossy
    Stream size                              : 116 MiB (8%)
    Alignment                                : Split accross interleaves

    Скриншоты:


    © Оформление by Ворон
    piratbit.pw



  • Скачать Судный день Дэна через торрент https://pic1.kartinco.top/images/61/ordi9.jpg Скачать фильм Судный день Дэна через торрент бесплантно в хорошем качестве Е:Дэнни - обычный датский подросток, с обычными для всех подростков проблемами: притеснениями в школе, ссорами с братом, безответной ... 10 10 7
    Торрент: Зарегистрирован [2015-03-13 14:51] · скачан: 245 раз
    Статус: T временная
    Размер: 1.36 GB
    Как cкачать? Как скачать Судный день Дэна через торрент | UTorrent

    % Раздел Тема Автор DL S | L
    T Фильмы (WEB-DL 720p, 1080p) [ 2.79 GB ] Судный день Дэна / Dannys dommedag [2014 WEB-DL 1080p Любительский [den904 DeadSno] Ворон Скачать
    1 | 0

    28-11-2019 20:33  

    Отключить всю рекламу на сайте

    13-03-2015 15:55 Судный день Дэна Скачать торрент  

    семейный с ненормативной лексикой ..... прикольненькоpiratbit.pw



    15-03-2015 09:35 Судный день Дэна Скачать торрент  

    кино конечно не с детьми смотреть-и дэд сноу и дэн не кубик в кубе и не лост фильм-но как говорится-на безрыбье и рак рыба-если темболее с английским плоховатоpiratbit.pw



      Дорогой пользователь! Огромная просьба, поблагодарите релизера, оцените раздачу и оставьте свои комментарий, если Вы скачали Судный день Дэна через торрент бесплатно! Внесите свою лепту в развитие PiratBit!
      Комментировать посты могут только пользователи прошедшие не сложную регистрацию
      Показать сообщения:    

      Судный день Дэна через торрент
      Скачать бесплатно Судный день Дэна
      Судный день Дэна скачать торрент
      Судный день Дэна смотреть онлайн
      Cкачать фильм Судный день Дэна бесплатно
      Судный день Дэна скачать торрент в хорошем качестве
      Судный день Дэна смотреть онлайн бесплатно в хорошем качестве


      Вы не можете начинать темы
      Вы не можете отвечать на сообщения
      Вы не можете редактировать свои сообщения
      Вы не можете удалять свои сообщения
      Вы не можете голосовать в опросах
      Вы не можете прикреплять файлы к сообщениям
      Вы можете скачивать файлы