1 сезон

3 сезон

iTunes

1

iTunes

DUB Netflix

iTunes

13

1 сезон

RePack

30

Deluxe

pack

Легкие деньги

ВАЖНО

ИГРА 18+

pack

RePack

MK11

RePack

jed

RePack

fifa19

RePack

RDR2

RePack

NEED FOR SPEED™ PAYBACK

4 сезон

9 сезон

Бесстыжие 9 сезон

Все сериалы

все сериалы на PB.wtf

RePack

FAR CRY 5

Anonymous, добрый вечер, мы не успеваем до 1 числа собрать деньги на оплату серверов, помогите нам пожалуйста в это трудное время. В качестве благодарности мы отключим Вам всю рекламу на сайте (укажите свой ник в строку Ваше имя)!

×
  
Magnet ссылка

Канал / The CAnal (Иван Кэвэна / Ivan Kavanagh) [2014, Ирландия, ужасы, триллер, детектив, HDRip, Любительский (одноголосый) [Xixidok] piratbit.pw

Канал через торрент piratbit.pw

Размер: 1.4 GB | Добавлен: 6 лет 3 мес. назад | Торрент скачан:211 раз
Скачать  

13-03-2015 10:24 Канал Скачать торрент  

Канал / The Canal
«Страх будет преследовать вас»


  • Год выпуска: 2014
  • Страна: Ирландия
  • Жанр: ужасы, триллер, детектив
  • Продолжительность: 01:33:16
  • Перевод: Любительский (одноголосый) [Xixidok]

  • Режиссер: Иван Кэвэна / Ivan Kavanagh
  • В ролях:

    Руперт Эванс (David), Антония Кэмпбелл-Хьюджес (Claire), Стив Орам (McNamara), Ханна Хекстра (Alice), Келли Бирн (Sophie), Кэлам Хит (Billy), Маура Фоли (Woman In garden), Карл Шаабан (Alex), Аннеке Блок, Энтони Мерфи (Policeman 1), Конор Хорган (Stephen), Серена Брабазон (Estate Agent)

  • Описание:
    Дэвид Уильямс работает в кино-архиве. Однажды он застал свою жену за изменой. Не в силах сдержать гнев он расправился с ней. Чтобы скрыть следы, он утопил тело в канале неподалеку. Но теперь его преследуют кошмары. Каково же было его удивление, когда при просмотре очередной старой кинопленки датированной началом XX века он видит на кадрах собственный дом, в котором в 1902 году произошли кровавые события. В те далекие годы в этом доме жил Уильям Джексон с семьей. Но после измены жены он убил ее и детей, а тела утопил в канале. Эта история повторилась спустя много лет. Полиция, которая подозревает Дэвида в исчезновении жены даже не догадывается, что всему виной старый дом, который кроет в себе настоящее зло..
  • Рейтинг:



  • Качество: HDRip
  • Формат: :AVI
  • Видео кодек: XviD
  • Аудио кодек: AC3
  • Видео: 720x304 (2.35:1), 1744 kbps, 24 fps, 0,332 bpp
  • Аудио №1: 2.0 / 48 kHz / 192 kbps / 16 bit
  • Аудио №2: 2.0 / 48 kHz / 192 kbps / 16 bit
  • Релиз от: GEKADOL

    Код:

    General
    Complete name                            : D:\Фильмы\Canal.2014.L1.HDRip.avi
    Format                                   : AVI
    Format/Info                              : Audio Video Interleave
    File size                                : 1.40 GiB
    Duration                                 : 1h 33mn
    Overall bit rate                         : 2 143 Kbps
    Writing application                      : VirtualDubMod 1.5.10.3 | www.virtualdub-fr.org || (build 2550/release)
    Writing library                          : VirtualDubMod build 2550/release

    Video
    ID                                       : 0
    Format                                   : MPEG-4 Visual
    Format profile                           : Advanced Simple@L5
    Format settings, BVOP                    : 2
    Format settings, QPel                    : No
    Format settings, GMC                     : No warppoints
    Format settings, Matrix                  : Default (MPEG)
    Codec ID                                 : XVID
    Codec ID/Hint                            : XviD
    Duration                                 : 1h 33mn
    Bit rate                                 : 1 745 Kbps
    Width                                    : 720 pixels
    Height                                   : 304 pixels
    Display aspect ratio                     : 2.35:1
    Frame rate                               : 24.000 fps
    Color space                              : YUV
    Chroma subsampling                       : 4:2:0
    Bit depth                                : 8 bits
    Scan type                                : Progressive
    Compression mode                         : Lossy
    Bits/(Pixel*Frame)                       : 0.332
    Stream size                              : 1.14 GiB (81%)
    Writing library                          : XviD 1.2.1 (UTC 2008-12-04)

    Audio #1
    ID                                       : 1
    Format                                   : AC-3
    Format/Info                              : Audio Coding 3
    Mode extension                           : CM (complete main)
    Codec ID                                 : 2000
    Duration                                 : 1h 33mn
    Bit rate mode                            : Constant
    Bit rate                                 : 192 Kbps
    Channel(s)                               : 2 channels
    Channel positions                        : Front: L R
    Sampling rate                            : 48.0 KHz
    Bit depth                                : 16 bits
    Compression mode                         : Lossy
    Stream size                              : 128 MiB (9%)
    Alignment                                : Split accross interleaves
    Interleave, duration                     : 42 ms (1.00 video frame)
    Interleave, preload duration             : 500 ms

    Audio #2
    ID                                       : 2
    Format                                   : AC-3
    Format/Info                              : Audio Coding 3
    Mode extension                           : CM (complete main)
    Codec ID                                 : 2000
    Duration                                 : 1h 33mn
    Bit rate mode                            : Constant
    Bit rate                                 : 192 Kbps
    Channel(s)                               : 2 channels
    Channel positions                        : Front: L R
    Sampling rate                            : 48.0 KHz
    Bit depth                                : 16 bits
    Compression mode                         : Lossy
    Stream size                              : 128 MiB (9%)
    Alignment                                : Split accross interleaves
    Interleave, duration                     : 42 ms (1.00 video frame)
    Interleave, preload duration             : 500 ms




    Скриншоты:



    piratbit.pw



  • Скачать Канал через торрент http://i58.fastpic.ru/big/2015/0313/eb/bdcf029074772788366b31b8d702d4eb.jpg Скачать фильм Канал через торрент бесплантно в хорошем качестве Описание: Дэвид Уильямс работает в кино-архиве. Однажды он застал свою жену за изменой. Не в силах сдержать гнев он расправился с ней. ... 8 10 5
    Торрент: Зарегистрирован [2015-03-13 10:24] · скачан: 211 раз
    Статус: √ проверено
    Размер: 1.4 GB
    Как cкачать? Как скачать Канал через торрент | UTorrent

    % Раздел Тема Автор DL S | L
    T Фильмы 2016 (Звук TS, Cam, VO, DVO) [ 1.37 GB ] Канал / The Channel [2016 WEB-DLRip Любительский Релиз без рекламы! Ворон Скачать
    1 | 0
    T Фильмы 2015 (Звук TS, Cam, VO, DVO) [ 702 MB ] Канал / The Channel [2016 WEB-DLRip] DVO $-DRON-$ Скачать
    1 | 0
    T Фильмы 2014 (Звук TS, Cam, VO, DVO) [ 1.37 GB ] Канал / The CAnal [2014 Ирландия WEB-DLRip Любительский [Xixidok] GEKADOL Скачать
    1 | 0
    Военное дело [ 2.89 GB ] Гуадалканал: остров смерти / GuadalcAnal: The Island of Death [1999 Документальный война история IPTV-Rip] [VO] killermax2013 Скачать
    1 | 0

    28-11-2019 20:33  

    Отключить всю рекламу на сайте

      Дорогой пользователь! Огромная просьба, поблагодарите релизера, оцените раздачу и оставьте свои комментарий, если Вы скачали Канал через торрент бесплатно! Внесите свою лепту в развитие PiratBit!
      Комментировать посты могут только пользователи прошедшие не сложную регистрацию
      Показать сообщения:    

      Канал через торрент
      Скачать бесплатно Канал
      Канал скачать торрент
      Канал смотреть онлайн
      Cкачать фильм Канал бесплатно
      Канал скачать торрент в хорошем качестве
      Канал смотреть онлайн бесплатно в хорошем качестве


      Вы не можете начинать темы
      Вы не можете отвечать на сообщения
      Вы не можете редактировать свои сообщения
      Вы не можете удалять свои сообщения
      Вы не можете голосовать в опросах
      Вы не можете прикреплять файлы к сообщениям
      Вы можете скачивать файлы