1 сезон

3 сезон

iTunes

1

iTunes

DUB Netflix

iTunes

13

1 сезон

RePack

30

Deluxe

pack

Легкие деньги

ВАЖНО

ИГРА 18+

pack

RePack

MK11

RePack

jed

RePack

fifa19

RePack

RDR2

RePack

NEED FOR SPEED™ PAYBACK

4 сезон

9 сезон

Бесстыжие 9 сезон

Все сериалы

все сериалы на PB.wtf

RePack

FAR CRY 5

Anonymous, добрый вечер, мы не успеваем до 1 числа собрать деньги на оплату серверов, помогите нам пожалуйста в это трудное время. В качестве благодарности мы отключим Вам всю рекламу на сайте (укажите свой ник в строку Ваше имя)!

×
  
Magnet ссылка

Жнец / Reaper (Wen-Han Shih) [2014, США, ужасы, фантастика, триллер, DVDRip] MVO [Колобок & Victory-Films & XDub] piratbit.pw

Жнец через торрент piratbit.pw

Размер: 1.37 GB | Добавлен: 6 лет 3 мес. назад | Торрент скачан:386 раз
Скачать  

11-03-2015 02:21 Жнец Скачать торрент  

Жнец / Reaper
«Смерть грешнику»


  • Год выпуска: 2014
  • Страна: США
  • Жанр: ужасы, фантастика, триллер, криминал
  • Продолжительность: 01:24:59
  • Перевод: Любительский многоголосый [Колобок & Victory-Films & XDub]

  • Режиссер: Wen-Han Shih
  • В ролях:

    Дэнни Трехо (Jack), Винни Джонс (Rob), Джейк Бьюзи (Bill), Шейла Бисли (Natalie), Омар Джурди (Brad), Кристофер Джадж (Officer Banks), Джастин Генри (Caine), Уильям Шокли (Buck), Гэбриел Джаррет (Joe), Mike Michaels (The Reaper), Йен Фишер (Vagabond), Dustin Aremburg (Church Corpse)

  • Описание:
    Натали - молодая и красивая девушка, путешествующая автостопом по стране и пытающаяся заработать больной матери на операцию. В своих путешествиях она сталкивается как с подонками, так и с хорошими людьми. В то время, как Натали пытается добраться до дома, в окрестностях возобновил свою дейтельность психопат, чудом избежавший смертной казни на электрическом стуле. Судьба сводит Натали, ее случайных попутчиков и убийцу в одном отеле, название которому "Последнее пристанище".
  • Рейтинг:



  • Качество: DVDRip
  • Формат: :AVI
  • Видео кодек: XviD
  • Аудио кодек: AC3
  • Видео: 720x400 (16:9), 1845 kbps, 25 fps, 0,256 bpp
  • Аудио: 5.1 / 48 kHz / 448 kbps / 16 bit
  • Релиз от: GEKADOL

    Код:

    General
    Complete name                            : I:\Reaper.2014.L.DVDRip.1400MB.avi
    Format                                   : AVI
    Format/Info                              : Audio Video Interleave
    File size                                : 1.37 GiB
    Duration                                 : 1h 24mn
    Overall bit rate                         : 2 303 Kbps
    Writing application                      : VirtualDubMod 1.5.10.3 | www.virtualdub-fr.org || (build 2550/release)
    Writing library                          : VirtualDubMod build 2550/release

    Video
    ID                                       : 0
    Format                                   : MPEG-4 Visual
    Format profile                           : Advanced Simple@L5
    Format settings, BVOP                    : 1
    Format settings, QPel                    : No
    Format settings, GMC                     : No warppoints
    Format settings, Matrix                  : Custom
    Codec ID                                 : XVID
    Codec ID/Hint                            : XviD
    Duration                                 : 1h 24mn
    Bit rate                                 : 1 846 Kbps
    Width                                    : 720 pixels
    Height                                   : 400 pixels
    Display aspect ratio                     : 16:9
    Frame rate                               : 25.000 fps
    Color space                              : YUV
    Chroma subsampling                       : 4:2:0
    Bit depth                                : 8 bits
    Scan type                                : Progressive
    Compression mode                         : Lossy
    Bits/(Pixel*Frame)                       : 0.256
    Stream size                              : 1.10 GiB (80%)
    Writing library                          : XviD 73

    Audio
    ID                                       : 1
    Format                                   : AC-3
    Format/Info                              : Audio Coding 3
    Mode extension                           : CM (complete main)
    Codec ID                                 : 2000
    Duration                                 : 1h 24mn
    Bit rate mode                            : Constant
    Bit rate                                 : 448 Kbps
    Channel(s)                               : 6 channels
    Channel positions                        : Front: L C R, Side: L R, LFE
    Sampling rate                            : 48.0 KHz
    Bit depth                                : 16 bits
    Compression mode                         : Lossy
    Stream size                              : 272 MiB (19%)
    Alignment                                : Split accross interleaves
    Interleave, duration                     : 40 ms (1.00 video frame)
    Interleave, preload duration             : 500 ms




    Внимание! Присутствует ненормативная лексика!
    Скриншоты:



    piratbit.pw



  • Скачать Жнец через торрент http://i65.fastpic.ru/big/2015/0311/f3/e280ed70ada613733d4aaec0f88aa1f3.jpg Скачать фильм Жнец через торрент бесплантно в хорошем качестве Описание: Натали - молодая и красивая девушка, путешествующая автостопом по стране и пытающаяся заработать больной матери на операцию. В ... 9 10 13
    Торрент: Зарегистрирован [2015-03-11 02:21] · скачан: 386 раз
    Статус: √ проверено
    Размер: 1.37 GB
    Как cкачать? Как скачать Жнец через торрент | UTorrent

    % Раздел Тема Автор DL S | L
    T Фильмы 2014 (Звук TS, Cam, VO, DVO) [ 1.37 GB ] Жнец / Reaper [2014 DVDRip] olegus16 Скачать
    1 | 0

    28-11-2019 20:33  

    Отключить всю рекламу на сайте

    11-03-2015 08:44 Жнец Скачать торрент  

    спасибо за раздачу. жаль только, что эти муд.. очередной фильм матюгами испортили, ну да ладно, пускай самоутверждаются..
    upd. за озвучку конечно спасибо ребята, но вот тока непойму, неужели в России нет ни одного адекватного переводчика/озвучника, который мог бы завуалировать галимые матюги, чтоб можно было посмотреть новый фильм ДО ТОГО, КАК ДЕТЕЙ СПАТЬ УЛОЖИШЬ?? мать их, достали уже своими "реалистичными переводами" или как они их там величают..piratbit.pw



    11-03-2015 11:37 Жнец Скачать торрент  

    С дэнни трехо-фильмы штампуют-как горячие пирожки-а тут еще и костолом нарисовался-а фильм то туфтовый-на пенсию чтоли себе зарабатывают-видимо платят хорошоpiratbit.pw



    11-03-2015 13:08 Жнец Скачать торрент  

    sasha1966 писал(а):

    С дэнни трехо-фильмы штампуют-как горячие пирожки-а тут еще и костолом нарисовался-а фильм то туфтовый-на пенсию чтоли себе зарабатывают-видимо платят хорошо

    ну фиг знает, рейт выше пятерки, а не 3-4 как обычно с ним в последнее время
    IMDb: 5.30 (344)piratbit.pw



    11-03-2015 13:21 Жнец Скачать торрент  

    tamburetko писал(а):

    спасибо за раздачу. жаль только, что эти муд.. очередной фильм матюгами испортили, ну да ладно, пускай самоутверждаются..
    upd. за озвучку конечно спасибо ребята, но вот тока непойму, неужели в России нет ни одного адекватного переводчика/озвучника, который мог бы завуалировать галимые матюги, чтоб можно было посмотреть новый фильм ДО ТОГО, КАК ДЕТЕЙ СПАТЬ УЛОЖИШЬ?? мать их, достали уже своими "реалистичными переводами" или как они их там величают..

    согласен полностью... :paratrooper:piratbit.pw



      Дорогой пользователь! Огромная просьба, поблагодарите релизера, оцените раздачу и оставьте свои комментарий, если Вы скачали Жнец через торрент бесплатно! Внесите свою лепту в развитие PiratBit!
      Комментировать посты могут только пользователи прошедшие не сложную регистрацию
      Показать сообщения:    

      Жнец через торрент
      Скачать бесплатно Жнец
      Жнец скачать торрент
      Жнец смотреть онлайн
      Cкачать фильм Жнец бесплатно
      Жнец скачать торрент в хорошем качестве
      Жнец смотреть онлайн бесплатно в хорошем качестве


      Вы не можете начинать темы
      Вы не можете отвечать на сообщения
      Вы не можете редактировать свои сообщения
      Вы не можете удалять свои сообщения
      Вы не можете голосовать в опросах
      Вы не можете прикреплять файлы к сообщениям
      Вы можете скачивать файлы