Marvel's Avengers Deluxe Edition (супер цена) 159р. Внимание количество ограничено!!!

2 сезон

iTunes

iTunes

1

iTunes

iTunes

iTunes

WEBRip

iTunes

30
pack

Новость дня

ВАЖНО

!!Акция!!

Alien_RageХит недели

RePack

Horizon Zero Dawn

ИГРА 18+

pack

RePack

jed

!!Акция!!

Alien_Rage

RePack

fifa19

RePack

Assassins Creed: Odyssey

RePack

NEED FOR SPEED™ PAYBACK

4 сезон

9 сезон

Бесстыжие 9 сезон

Все сериалы

все сериалы на PB.wtf

RePack

FAR CRY 5
  

Невидимки (Сергей Комаров) [2013 г., Комедия, фантастика, WEB-DLRip 720p] piratbit.pw

Невидимки через торрент piratbit.pw

Размер: 2.79 GB | Добавлен: 5 лет 6 мес. назад | Торрент скачан:292 раза
Скачать  

06-03-2015 05:43 Невидимки Скачать торрент  

Невидимки
Год выпуска: 2013
Страна: Россия
Жанр: Комедия, фантастика
Продолжительность: 01:29:51
Субтитры: Нет

Режиссер: Сергей Комаров



В ролях: Илья Любимов, Екатерина Гусева,Гоша Куценко, Андрей Мерзликин, Ирина Розанова, Иван Чуваткин, Вера Борисенкова, Зураб Гурцкая, Владимир Дыховичный, Петр Винс

Описание: В канун Нового года удивительное событие навсегда меняет жизнь главного героя: он становится невидимкой! Правда, понимает он это не сразу, так как уже привык к тому, что его никто не замечает и не принимает всерьез. Очень быстро войдя во вкус новой жизни и своих супер способностей, он вдруг обнаруживает, что он такой не один!
НИКТО И НИКОГДА ИХ НЕ ВИДЕЛ… Мы не знаем, кто на самом деле забил гол голландцам на чемпионате Европы? Кто махал демонстрантам рукой утомленного Брежнева? Куда исчезли остатки тунгусского метеорита? Кто сказал: «Поехали!». Кто украл у американцев секрет атомной бомбы? В Москве невидимок — видимо невидимо…

Качество: WEB-DLRip 720p
Формат: MKV
Видео кодек: AVC
Аудио кодек: AC3
Видео: MPEG-4 AVC, 3979 Кбит/с, 1280x534, 24,000 fps
Аудио#1: AC-3, 48.0 KHz, 6 ch, 384 Kbps
Общее
Уникальный идентификатор : 217070445932252783478114080561797576539 (0xA34E3F4798F7BB629AE3D07575D0B75B)
Полное имя : D:\Торрент\Nevudimki.2015
Формат : Matroska
Версия формата : Version 2
Размер файла : 2,79 Гбайт
Продолжительность : 1 ч. 29 м.
Общий поток : 4452 Кбит/сек
Дата кодирования : UTC 2015-03-05 19:10:40
Программа кодирования : mkvmerge v7.7.0 ('Six Voices') 64bit built on Feb 28 2015 23:39:33
Библиотека кодирования : libebml v1.3.1 + libmatroska v1.4.2
DURATION : 01:29:51.917000000
NUMBER_OF_FRAMES : 129406
NUMBER_OF_BYTES : 2740318082
_STATISTICS_WRITING_APP : mkvmerge v7.7.0 ('Six Voices') 64bit built on Feb 28 2015 23:39:33
_STATISTICS_WRITING_DATE_UTC : 2015-03-05 19:10:40
_STATISTICS_TAGS : BPS DURATION NUMBER_OF_FRAMES NUMBER_OF_BYTES

Видео
Идентификатор : 1
Формат : AVC
Формат/Информация : Advanced Video Codec
Профиль формата : High@L4.1
Параметр CABAC формата : Да
Параметр ReFrames формата : 4 кадра
Идентификатор кодека : V_MPEG4/ISO/AVC
Продолжительность : 1 ч. 29 м.
Битрейт : 3979 Кбит/сек
Ширина : 1280 пикселей
Высота : 534 пикселя
Соотношение сторон : 2,40:1
Режим частоты кадров : Постоянный
Частота кадров : 24,000 кадра/сек
Цветовое пространство : YUV
Субдискретизация насыщенности : 4:2:0
Битовая глубина : 8 бит
Тип развёртки : Прогрессивная
Бит/(Пиксели*Кадры) : 0.243
Размер потока : 2,50 Гбайт (89%)
Язык : Russian
Default : Да
Forced : Нет

Аудио
Идентификатор : 2
Формат : AC-3
Формат/Информация : Audio Coding 3
Расширение режима : CM (complete main)
Параметр Endianness формата : Big
Идентификатор кодека : A_AC3
Продолжительность : 1 ч. 29 м.
Вид битрейта : Постоянный
Битрейт : 384 Кбит/сек
Каналы : 6 каналов
Расположение каналов : Front: L C R, Side: L R, LFE
Частота : 48,0 КГц
Битовая глубина : 16 бит
Метод сжатия : С потерями
Размер потока : 247 Мбайт (9%)
Язык : Russian
Default : Нет
Forced : Нет

Меню
00:00:00.000 : en:Глава 1
00:06:16.000 : en:Глава 2
00:11:55.000 : en:Глава 3
00:17:14.000 : en:Глава 4
00:22:13.000 : en:Глава 5
00:27:47.000 : en:Глава 6
00:32:48.000 : en:Глава 7
00:39:04.000 : en:Глава 8
00:45:59.000 : en:Глава 9
00:53:02.000 : en:Глава 10
00:59:57.000 : en:Глава 11
01:05:37.000 : en:Глава 12
01:11:00.000 : en:Глава 13
01:17:01.000 : en:Глава 14
01:23:25.000 : en:Глава 15
скриншот  
скриншот  
скриншот  
piratbit.pw
!Ворон писал(а):

https://pb.wtf/topic/73647/
*** Исключением являются WEB-DL рипы у которых зачастую меньше битрейт... Таким релизам будет присваиваться статус "временной" раздачи до появления более качественных BDRip'ов



Скачать Невидимки через торрент http://pic1.kartinco.top/images/10/rqj74.jpg Скачать фильм Невидимки через торрент бесплантно в хорошем качестве Описание: В канун Нового года удивительное событие навсегда меняет жизнь главного героя: он становится невидимкой! Правда, понимает он это ... 9 10 11
Торрент: Зарегистрирован [2015-03-06 05:43] · скачан: 292 раз
Статус: T временная
Размер: 2.79 GB
Как cкачать? Как скачать Невидимки через торрент | qTorrent

% Раздел Тема Автор DL S | L
Фильмы 2019-2020 [DVDrip, WEB-DLRip, HDrip] (DUB, MVO) [ 783 MB ] Человек-невидимка / The Invisible Man [2020 BDRip-AVC] [] Lithuania Скачать
2 | 2
Фильмы (Blu-ray, BD-Remux, HDDVD) [ 41.51 GB ] Человек-невидимка / The Invisible Man [2020 Blu-Ray EUR 1080p] DUB [] bober100 Скачать
1 | 0
Фильмы 2019-2020 [DVDrip, WEB-DLRip, HDrip] (DUB, MVO) [ 748 MB ] Человек-невидимка / The Invisible Man [2020 HDRip] DUB [] bober100 Скачать
1 | 0
Ultra HD (UHD: 2K, 4K, 8K) — видео сверхвысокой чёткости [ 59.56 GB ] Человек-невидимка / The Invisible Man [2020 UHD BDRemux 2160p ] DUB [] bober100 Скачать
1 | 0
Фильмы [HD 720p, 1080p] (Хороший звук DUB, MVO) [ 11.08 GB ] Человек-невидимка / The Invisible Man [2020 BDRip 1080p] DUB [] +MVO [HDRezka Studio] bober100 Скачать
1 | 0
Ultra HD (UHD: 2K, 4K, 8K) — видео сверхвысокой чёткости [ 66.78 GB ] Человек-невидимка / The Invisible Man [2020 UHD BDRemux 2160p ] DUB [] +MVO [HDRezka Studio] bober100 Скачать
1 | 0
Фильмы 2019-2020 [DVDrip, WEB-DLRip, HDrip] (DUB, MVO) [ 2.18 GB ] Человек-невидимка / The Invisible Man [2020 BDRip] - [] Twi7ter Скачать
3 | 0


Последний раз редактировалось: vitaha1982 (2015-03-06 10:15), всего редактировалось 2 раз(а)

28-11-2019 20:33  

Отключить всю рекламу на сайте

06-03-2015 08:15 Невидимки Скачать торрент  

год 2013piratbit.pw



06-03-2015 09:45 Невидимки Скачать торрент  

06-03-2015 10:21 Невидимки Скачать торрент  

Исправилpiratbit.pw



    Дорогой пользователь! Огромная просьба, поблагодарите релизера, оцените раздачу и оставьте свои комментарий, если Вы скачали Невидимки через торрент бесплатно! Внесите свою лепту в развитие PiratBit!
    Комментировать посты могут только пользователи прошедшие не сложную регистрацию
    Показать сообщения:    

    Невидимки через торрент
    Скачать бесплатно Невидимки
    Невидимки скачать торрент
    Невидимки смотреть онлайн
    Cкачать фильм Невидимки бесплатно
    Невидимки скачать торрент в хорошем качестве
    Невидимки смотреть онлайн бесплатно в хорошем качестве


    Вы не можете начинать темы
    Вы не можете отвечать на сообщения
    Вы не можете редактировать свои сообщения
    Вы не можете удалять свои сообщения
    Вы не можете голосовать в опросах
    Вы не можете прикреплять файлы к сообщениям
    Вы можете скачивать файлы