1 сезон

3 сезон

iTunes

1

iTunes

DUB Netflix

iTunes

13

1 сезон

RePack

30

Deluxe

pack

Легкие деньги

ВАЖНО

ИГРА 18+

pack

RePack

MK11

RePack

jed

RePack

fifa19

RePack

RDR2

RePack

NEED FOR SPEED™ PAYBACK

4 сезон

9 сезон

Бесстыжие 9 сезон

Все сериалы

все сериалы на PB.wtf

RePack

FAR CRY 5

Anonymous, добрый вечер, мы не успеваем до 1 числа собрать деньги на оплату серверов, помогите нам пожалуйста в это трудное время. В качестве благодарности мы отключим Вам всю рекламу на сайте (укажите свой ник в строку Ваше имя)!

×
  
Magnet ссылка

Детеныш / Welp (Jonas Govaerts) [2014 г., Ужасы, приключения, мистика, HDRip,] VO (Павел Морозов) piratbit.pw

Детеныш через торрент piratbit.pw

Размер: 1.45 GB | Добавлен: 6 лет 3 мес. назад | Торрент скачан:315 раз
Скачать  

05-03-2015 06:13 Детеныш Скачать торрент  

Детеныш / Welp
Год выпуска: 2014
Страна: Бельгия
Жанр: Ужасы, приключения, мистика
Продолжительность: 01:24:12
Перевод: Любительский одноголосый

Режиссер: Jonas Govaerts



В ролях: Стэф Эртз, Эвелин Босманс, Титус Де Вогдт, Gill Eeckelaert, Ян Хамменекер, Maurice Luijten

Описание: 12-летний подросток Сэм вместе с ровесниками отправляется в летний лагерь скаутов. Когда он рассказывает обитателям лагеря о встрече в лесу с загадочным мальчиком, героем местных легенд-страшилок, старшие скауты списывают его рассказ на богатое воображение и впечатлительность. Очень скоро им самим предстоит узнать, что в его рассказе правда, а что вымысел...

Качество: HDRip
Формат: AVI
Видео кодек: XviD
Аудио кодек: AC3
Видео: 720x304 (2.35:1), 23.976 fps, 2 064 Kbps (0.393 bit/pixel)
Аудио#1: 44.1 KHz, 2 ch, 192 Kbps, CBR(Павел Морозов aka PashaUp)
Аудио#2: 44.1 KHz, 2 ch, 192 Kbps, CBR Голландский
General
Complete name : G:\Детеныш\Welp.2014.L1.HDRip.avi
Format : AVI
Format/Info : Audio Video Interleave
File size : 1.45 GiB
Duration : 1h 24mn
Overall bit rate : 2 462 Kbps
Writing application : VirtualDubMod 1.5.10.3 | www.virtualdub-fr.org || (build 2550/release)
Writing library : VirtualDubMod build 2550/release

Video
ID : 0
Format : MPEG-4 Visual
Format profile : Advanced Simple@L5
Format settings, BVOP : 1
Format settings, QPel : No
Format settings, GMC : No warppoints
Format settings, Matrix : Custom
Codec ID : XVID
Codec ID/Hint : XviD
Duration : 1h 24mn
Bit rate : 2 064 Kbps
Width : 720 pixels
Height : 304 pixels
Display aspect ratio : 2.35:1
Frame rate : 23.976 fps
Color space : YUV
Chroma subsampling : 4:2:0
Bit depth : 8 bits
Scan type : Progressive
Compression mode : Lossy
Bits/(Pixel*Frame) : 0.393
Stream size : 1.21 GiB (84%)
Writing library : XviD 73

Audio #1
ID : 1
Format : AC-3
Format/Info : Audio Coding 3
Mode extension : CM (complete main)
Format settings, Endianness : Big
Codec ID : 2000
Duration : 1h 24mn
Bit rate mode : Constant
Bit rate : 192 Kbps
Channel(s) : 2 channels
Channel positions : Front: L R
Sampling rate : 44.1 KHz
Bit depth : 16 bits
Compression mode : Lossy
Delay relative to video : 5ms
Stream size : 116 MiB (8%)
Alignment : Split accross interleaves
Interleave, duration : 42 ms (1.00 video frame)
Interleave, preload duratio : 500 ms

Audio #2
ID : 2
Format : AC-3
Format/Info : Audio Coding 3
Mode extension : CM (complete main)
Format settings, Endianness : Big
Codec ID : 2000
Duration : 1h 24mn
Bit rate mode : Constant
Bit rate : 192 Kbps
Channel(s) : 2 channels
Channel positions : Front: L R
Sampling rate : 48.0 KHz
Bit depth : 16 bits
Compression mode : Lossy
Stream size : 116 MiB (8%)
Alignment : Split accross interleaves
Interleave, duration : 42 ms (1.00 video frame)
Interleave, preload duratio : 500 ms

piratbit.pw



Скачать Детеныш через торрент https://pic1.kartinco.top/images/10/dii1m.jpg Скачать фильм Детеныш через торрент бесплантно в хорошем качестве Описание: 12-летний подросток Сэм вместе с ровесниками отправляется в летний лагерь скаутов. Когда он рассказывает обитателям лагеря о ... 9.8 10 12
Торрент: Зарегистрирован [2015-03-05 06:13] · скачан: 315 раз
Статус: T временная
Размер: 1.45 GB
Как cкачать? Как скачать Детеныш через торрент | UTorrent

28-11-2019 20:33  

Отключить всю рекламу на сайте

05-03-2015 11:16 Детеныш Скачать торрент  

Кто эти люди?Откуда они взялись?Зачем убивали?Одни загадки!Один раз посмотреть и забыть!piratbit.pw



06-03-2015 08:40 Детеныш Скачать торрент  

да больше вопросов чем ответов piratbit.pw



25-04-2015 12:38 Детеныш Скачать торрент  

Удивительная мерзость! Снимали дебилы, про дебилов и для дебилов!piratbit.pw



    Дорогой пользователь! Огромная просьба, поблагодарите релизера, оцените раздачу и оставьте свои комментарий, если Вы скачали Детеныш через торрент бесплатно! Внесите свою лепту в развитие PiratBit!
    Комментировать посты могут только пользователи прошедшие не сложную регистрацию
    Показать сообщения:    

    Детеныш через торрент
    Скачать бесплатно Детеныш
    Детеныш скачать торрент
    Детеныш смотреть онлайн
    Cкачать фильм Детеныш бесплатно
    Детеныш скачать торрент в хорошем качестве
    Детеныш смотреть онлайн бесплатно в хорошем качестве


    Вы не можете начинать темы
    Вы не можете отвечать на сообщения
    Вы не можете редактировать свои сообщения
    Вы не можете удалять свои сообщения
    Вы не можете голосовать в опросах
    Вы не можете прикреплять файлы к сообщениям
    Вы можете скачивать файлы