Ссылка на приватное зеркало нашего сайта всего за 1$. Внимание количество ограничено!!!

2 сезон

iTunes

1 сезон

1

iTunes

iTunes

iTunes

1 сезон

RePack

30

ИГРА 18+

pack

ВАЖНО

!!Акция!!

Alien_RageХит недели

RePack

MK11
pack

Забери бонус

RePack

jed

!!Акция!!

Alien_Rage

RePack

fifa19

RePack

Assassins Creed: Odyssey

RePack

NEED FOR SPEED™ PAYBACK

4 сезон

9 сезон

Бесстыжие 9 сезон

Все сериалы

все сериалы на PB.wtf

RePack

FAR CRY 5
  

Две женщины (Вера Глаголева) [2014, Россия, Франция, Латвия, Великобритания, драма, WEB-DLRip, Оригинальный] piratbit.pw

Две женщины через торрент piratbit.pw

Размер: 1.46 GB | Добавлен: 5 лет 7 мес. назад | Торрент скачан:663 раза
Скачать  

05-03-2015 00:35 Две женщины Скачать торрент  

Две женщины

Год выпуска: 2014
Страна: Россия, Франция, Латвия, Великобритания
Жанр: драма
Продолжительность: 01:39:29
Перевод: Не требуется, Оригинальный
Субтитры: русские вшитые
Режиссер: Вера Глаголева
В ролях:


Анна Астраханцева (Наталья Петровна), Рэйф Файнс (Ракитин), Александр Балуев (Аркадий Ислаев), Сильви Тестю (Елизавета Богдановна), Никита Волков (Алексей Беляев), Анна Леванова (Верочка), Лариса Малеванная (Анна Семеновна), Бернд Мосс (Шааф), Сергей Юшкевич (Игнатий Шпигельский), Василий Мищенко (Афанасий Большинцов), Андрей Занога, Роман Дробот (Матвей, слуга)

Описание:
Волевая молодая женщина состоит в браке с крупным землевладельцем. Но однажды она безответно влюбляется в наставника собственного сына.

Рейтинг:
Бюджет:€2 860 000
Качество: WEB-DLRip
Формат: AVI
Видео кодек:XviD
Аудио кодек:AC3
Видео: XviD, 720x400 (16:9), 1625 kbps, 25 fps, 0,226 bpp
Аудио: AC3 / 5.1 / 48 kHz / 384 kbps / 16 bit - Оригинал

General
Complete name : D:\_uTorrent_\Dve.Jenshiny.2014.O.WEB-DLRip.1.46GB.avi
Format : AVI
Format/Info : Audio Video Interleave
File size : 1.46 GiB
Duration : 1h 39mn
Overall bit rate : 2 102 Kbps
Writing application : VirtualDubMod 1.5.10.3 | www.virtualdub-fr.org || (build 2550/release)
Writing library : VirtualDubMod build 2550/release

Video
ID : 0
Format : MPEG-4 Visual
Format profile : Advanced Simple@L5
Format settings, BVOP : 2
Format settings, QPel : No
Format settings, GMC : No warppoints
Format settings, Matrix : Default (MPEG)
Codec ID : XVID
Codec ID/Hint : XviD
Duration : 1h 39mn
Bit rate : 1 625 Kbps
Width : 720 pixels
Height : 400 pixels
Display aspect ratio : 16:9
Frame rate : 25.000 fps
Color space : YUV
Chroma subsampling : 4:2:0
Bit depth : 8 bits
Scan type : Progressive
Compression mode : Lossy
Bits/(Pixel*Frame) : 0.226
Stream size : 1.13 GiB (77%)
Writing library : XviD 1.2.1 (UTC 2008-12-04)

Audio
ID : 1
Format : AC-3
Format/Info : Audio Coding 3
Mode extension : CM (complete main)
Codec ID : 2000
Duration : 1h 39mn
Bit rate mode : Constant
Bit rate : 384 Kbps
Channel(s) : 6 channels
Channel positions : Front: L C R, Side: L R, LFE
Sampling rate : 48.0 KHz
Bit depth : 16 bits
Compression mode : Lossy
Stream size : 273 MiB (18%)
Alignment : Split accross interleaves

[/code]
piratbit.pw



Скачать Две женщины через торрент http://i60.fastpic.ru/big/2015/0305/2d/fe6eae40c86458dd3016e97220de342d.png Скачать фильм Две женщины через торрент бесплантно в хорошем качестве Описание: Волевая молодая женщина состоит в браке с крупным землевладельцем. Но однажды она безответно влюбляется в наставника собственного ... 8.4 10 13
Торрент: Зарегистрирован [2015-03-05 00:35] · скачан: 663 раз
Статус: √ проверено
Размер: 1.46 GB
Как cкачать? Как скачать Две женщины через торрент | qTorrent

28-11-2019 20:33  

Отключить всю рекламу на сайте

    Дорогой пользователь! Огромная просьба, поблагодарите релизера, оцените раздачу и оставьте свои комментарий, если Вы скачали Две женщины через торрент бесплатно! Внесите свою лепту в развитие PiratBit!
    Комментировать посты могут только пользователи прошедшие не сложную регистрацию
    Показать сообщения:    

    Две женщины через торрент
    Скачать бесплатно Две женщины
    Две женщины скачать торрент
    Две женщины смотреть онлайн
    Cкачать фильм Две женщины бесплатно
    Две женщины скачать торрент в хорошем качестве
    Две женщины смотреть онлайн бесплатно в хорошем качестве


    Вы не можете начинать темы
    Вы не можете отвечать на сообщения
    Вы не можете редактировать свои сообщения
    Вы не можете удалять свои сообщения
    Вы не можете голосовать в опросах
    Вы не можете прикреплять файлы к сообщениям
    Вы можете скачивать файлы