1 сезон

3 сезон

iTunes

1

iTunes

DUB Netflix

iTunes

13

1 сезон

RePack

30

Deluxe

pack

Легкие деньги

ВАЖНО

ИГРА 18+

pack

RePack

MK11

RePack

jed

RePack

fifa19

RePack

RDR2

RePack

NEED FOR SPEED™ PAYBACK

4 сезон

9 сезон

Бесстыжие 9 сезон

Все сериалы

все сериалы на PB.wtf

RePack

FAR CRY 5

Anonymous, доброй ночи, мы не успеваем до 1 числа собрать деньги на оплату серверов, помогите нам пожалуйста в это трудное время. В качестве благодарности мы отключим Вам всю рекламу на сайте (укажите свой ник в строку Ваше имя)!

×
  
Magnet ссылка

Штирия / The Curse of Styria (Маурицио Черновецкий / Mauricio Chernovetzky, Mark Devendorf) [2014, США, Венгрия, ужасы, фэнтези, триллер, HDRip, Любительский (двухголосый)] piratbit.pw

Штирия через торрент piratbit.pw

Размер: 1.44 GB | Добавлен: 6 лет 3 мес. назад | Торрент скачан:124 раза
Скачать  

04-03-2015 19:47 Штирия Скачать торрент  

Штирия / The Curse of Styria «Love requires sacrifice»
Год выпуска: 2014
Страна: США, Венгрия
Жанр: ужасы, фэнтези, триллер, детектив
Продолжительность: 01:39:05
Перевод: Любительский (двухголосый)
Субтитры: Отсутствует
Режиссер: Маурицио Черновецкий / Mauricio Chernovetzky, Mark Devendorf
В ролях:


Элинор Томлинсон (Lara), Стивен Ри (Dr. Hill), Эрика Марожан (Miss Eva Pasztor), Кэти Силверман (Young Lara), Жуль Уиллкокс (Mother), Юлия Петруха (Carmilla), Миклош Секей Б. (Miss Eva's Father & Old Man), Герда Пикали (Lara's Mother), Яцек Ленартович (General Spiegel), Ласло Кадар (Guard), Шандор Тюзкё (Janos), Лазло Мор (Istvan)

Описание:
Действие фильма происходит в 1989 году. Лару исключают из школы, и её отец, доктор Хилл, вынужден взять дочь с собой в экспедицию в страны за железным занавесом. Они отправляются в разрушенный замок Карнштейн. Там они знакомятся с молодой девушкой Кармиллой. Лара привлечена Кармиллой, и вместе они бродят по развалинам замка и окрестным лесам. Тем временем таинственные силы просыпаются в замке и одолевают его обитателей. Местный генерал хочет уничтожить замок, место нечистой силы, и всех, кто там находится. Кармилла предлагает Ларе спасение, но для этого девушка должна пройти ужасное испытание.

Рейтинг:

Качество: HDRip
Формат: AVI
Видео кодек:XviD
Аудио кодек:AC3
Видео: XviD, 640x352 (16:9), 1802 kbps, 23,976 fps, 0,334 bpp
Аудио: AC3 / 2.0 / 48 kHz / 192 kbps / 16 bit - Любительский (двухголосный) [DeadSno & den904]

General
Complete name : D:\_uTorrent_\The.Curse.Of.Shtiria_2014.HDRip.avi
Format : AVI
Format/Info : Audio Video Interleave
File size : 1.44 GiB
Duration : 1h 39mn
Overall bit rate : 2 086 Kbps
Writing library : VirtualDub build 35390/release

Video
ID : 0
Format : MPEG-4 Visual
Format profile : Advanced Simple@L5
Format settings, BVOP : 1
Format settings, QPel : No
Format settings, GMC : No warppoints
Format settings, Matrix : Default (MPEG)
Codec ID : XVID
Codec ID/Hint : XviD
Duration : 1h 39mn
Bit rate : 1 802 Kbps
Width : 640 pixels
Height : 352 pixels
Display aspect ratio : 16:9
Frame rate : 23.976 fps
Color space : YUV
Chroma subsampling : 4:2:0
Bit depth : 8 bits
Scan type : Progressive
Compression mode : Lossy
Bits/(Pixel*Frame) : 0.334
Stream size : 1.25 GiB (86%)
Writing library : XviD 1.2.1 (UTC 2008-12-04)

Audio
ID : 1
Format : AC-3
Format/Info : Audio Coding 3
Mode extension : CM (complete main)
Codec ID : 2000
Duration : 1h 39mn
Bit rate mode : Constant
Bit rate : 192 Kbps
Channel(s) : 2 channels
Channel positions : Front: L R
Sampling rate : 48.0 KHz
Bit depth : 16 bits
Compression mode : Lossy
Delay relative to video : 32ms
Stream size : 136 MiB (9%)
Alignment : Split accross interleaves

[/code]
piratbit.pw



Скачать Штирия через торрент http://i68.fastpic.ru/big/2015/0304/6e/87cb5bbf0fe5b19e2db19a9b83370c6e.png Скачать фильм Штирия через торрент бесплантно в хорошем качестве Описание: Действие фильма происходит в 1989 году. Лару исключают из школы, и её отец, доктор Хилл, вынужден взять дочь с собой в экспедицию ... 9.7 10 3
Торрент: Зарегистрирован [2015-03-04 19:47] · скачан: 124 раз
Статус: T временная
Размер: 1.44 GB
Как cкачать? Как скачать Штирия через торрент | UTorrent

28-11-2019 20:33  

Отключить всю рекламу на сайте

    Дорогой пользователь! Огромная просьба, поблагодарите релизера, оцените раздачу и оставьте свои комментарий, если Вы скачали Штирия через торрент бесплатно! Внесите свою лепту в развитие PiratBit!
    Комментировать посты могут только пользователи прошедшие не сложную регистрацию
    Показать сообщения:    

    Штирия через торрент
    Скачать бесплатно Штирия
    Штирия скачать торрент
    Штирия смотреть онлайн
    Cкачать фильм Штирия бесплатно
    Штирия скачать торрент в хорошем качестве
    Штирия смотреть онлайн бесплатно в хорошем качестве


    Вы не можете начинать темы
    Вы не можете отвечать на сообщения
    Вы не можете редактировать свои сообщения
    Вы не можете удалять свои сообщения
    Вы не можете голосовать в опросах
    Вы не можете прикреплять файлы к сообщениям
    Вы можете скачивать файлы