1 сезон

3 сезон

iTunes

1

iTunes

DUB Netflix

iTunes

13

1 сезон

RePack

30

Deluxe

pack

Легкие деньги

ВАЖНО

ИГРА 18+

pack

RePack

MK11

RePack

jed

RePack

fifa19

RePack

RDR2

RePack

NEED FOR SPEED™ PAYBACK

4 сезон

9 сезон

Бесстыжие 9 сезон

Все сериалы

все сериалы на PB.wtf

RePack

FAR CRY 5

Anonymous, доброе утро, мы не успеваем до 1 числа собрать деньги на оплату серверов, помогите нам пожалуйста в это трудное время. В качестве благодарности мы отключим Вам всю рекламу на сайте (укажите свой ник в строку Ваше имя)!

×
  
Magnet ссылка

Дом ужасов / The Scarehouse (Гэвин Бут ) [2014, ужасы, боевик, триллер, WEB-DLRip, Любительский (двухголосый) [den904, DeadSno] piratbit.pw

Дом ужасов через торрент piratbit.pw

Размер: 1.46 GB | Добавлен: 6 лет 3 мес. назад | Торрент скачан:186 раз
Скачать  

03-03-2015 08:17 Дом ужасов Скачать торрент  

Дом ужасов / The Scarehouse

Год выпуска: 2014
Страна: Канада
Жанр: ужасы, боевик, триллер
Продолжительность: 01:24:05
Перевод: Любительский (двухголосый) [den904, DeadSno]
Режиссер: Гэвин Бут
В ролях: Сара Хансен (Corey Peters), Кимберли-Сью Мюррэй (Elaina Forrester), Кэтерин Баррелл (Jaqueline Gill), Тиган Винс (Shelby Hickman), Эмили Алатало (Katrina Larson), Даниэль Баркер (Emily Lewis), Ивана Стоянович (Caitlin Bowden), Дженнифер Миллер (Lisa Jenner), Брэд Эверетт (Brandon Philips), Jack Ettlinger (Tom Gignac), Алекс Гарроч (Stu), Джонатан Дубски (Billy)
Описание:
Двое друзей решили устроить вечеринку на Хэллоуин у себя дома и пригласили к себе шесть сестер. Однако они не ожидали, что ночью их играм и веселью придет конец, и ситуация совершенно выйдет из-под контроля...
Рейтинг:

Качество: WEB-DLRip
Формат: AVI
Видео кодек: XviD
Аудио кодек:AC3
Видео: XviD, 720x304 (2.35:1), 1895 kbps, 29,970 fps, 0,289 bpp
Аудио №1: AC3 / 2.0 / 48 kHz / 192 kbps / [den904, DeadSno]
Аудио №2: AC3 / 5.1 / 48 kHz / 384 kbps / английский

Код:

General
Complete name                            : D:\Торенты\The Scarehouse 2014.avi
Format                                   : AVI
Format/Info                              : Audio Video Interleave
File size                                : 1.46 GiB
Duration                                 : 1h 24mn
Overall bit rate                         : 2 489 Kbps
Writing application                      : VirtualDubMod 1.5.10.3 | www.virtualdub-fr.org || (build 2550/release)
Writing library                          : VirtualDubMod build 2550/release

Video
ID                                       : 0
Format                                   : MPEG-4 Visual
Format profile                           : Advanced Simple@L5
Format settings, BVOP                    : 2
Format settings, QPel                    : No
Format settings, GMC                     : No warppoints
Format settings, Matrix                  : Default (H.263)
Muxing mode                              : Packed bitstream
Codec ID                                 : XVID
Codec ID/Hint                            : XviD
Duration                                 : 1h 24mn
Bit rate                                 : 1 895 Kbps
Width                                    : 720 pixels
Height                                   : 304 pixels
Display aspect ratio                     : 2.35:1
Frame rate                               : 29.970 fps
Color space                              : YUV
Chroma subsampling                       : 4:2:0
Bit depth                                : 8 bits
Scan type                                : Progressive
Compression mode                         : Lossy
Bits/(Pixel*Frame)                       : 0.289
Stream size                              : 1.11 GiB (76%)
Writing library                          : XviD 64

Audio #1
ID                                       : 1
Format                                   : AC-3
Format/Info                              : Audio Coding 3
Mode extension                           : CM (complete main)
Codec ID                                 : 2000
Duration                                 : 1h 24mn
Bit rate mode                            : Constant
Bit rate                                 : 192 Kbps
Channel(s)                               : 2 channels
Channel positions                        : Front: L R
Sampling rate                            : 48.0 KHz
Bit depth                                : 16 bits
Compression mode                         : Lossy
Stream size                              : 115 MiB (8%)
Alignment                                : Split accross interleaves
Interleave, duration                     : 33 ms (1.00 video frame)
Interleave, preload duration             : 500 ms

Audio #2
ID                                       : 2
Format                                   : AC-3
Format/Info                              : Audio Coding 3
Mode extension                           : CM (complete main)
Codec ID                                 : 2000
Duration                                 : 1h 24mn
Bit rate mode                            : Constant
Bit rate                                 : 384 Kbps
Channel(s)                               : 6 channels
Channel positions                        : Front: L C R, Side: L R, LFE
Sampling rate                            : 48.0 KHz
Bit depth                                : 16 bits
Compression mode                         : Lossy
Stream size                              : 231 MiB (15%)
Alignment                                : Split accross interleaves
Interleave, duration                     : 33 ms (1.00 video frame)
Interleave, preload duration             : 500 ms

piratbit.pw



Скачать Дом ужасов через торрент http://i67.fastpic.ru/big/2015/0303/c4/1294b5f333fafd5ea0352fcf6845e5c4.jpg Скачать фильм Дом ужасов через торрент бесплантно в хорошем качестве Описание: Двое друзей решили устроить вечеринку на Хэллоуин у себя дома и пригласили к себе шесть сестер. Однако они не ожидали, что ночью ... 10 10 7
Торрент: Зарегистрирован [2015-03-03 08:17] · скачан: 186 раз
Статус: T временная
Размер: 1.46 GB
Как cкачать? Как скачать Дом ужасов через торрент | UTorrent

28-11-2019 20:33  

Отключить всю рекламу на сайте

03-03-2015 11:12 Дом ужасов Скачать торрент  

как киноpiratbit.pw



04-03-2015 03:04 Дом ужасов Скачать торрент  

психопатки-лесбиянки,чушь!!!!! piratbit.pw



    Дорогой пользователь! Огромная просьба, поблагодарите релизера, оцените раздачу и оставьте свои комментарий, если Вы скачали Дом ужасов через торрент бесплатно! Внесите свою лепту в развитие PiratBit!
    Комментировать посты могут только пользователи прошедшие не сложную регистрацию
    Показать сообщения:    

    Дом ужасов через торрент
    Скачать бесплатно Дом ужасов
    Дом ужасов скачать торрент
    Дом ужасов смотреть онлайн
    Cкачать фильм Дом ужасов бесплатно
    Дом ужасов скачать торрент в хорошем качестве
    Дом ужасов смотреть онлайн бесплатно в хорошем качестве


    Вы не можете начинать темы
    Вы не можете отвечать на сообщения
    Вы не можете редактировать свои сообщения
    Вы не можете удалять свои сообщения
    Вы не можете голосовать в опросах
    Вы не можете прикреплять файлы к сообщениям
    Вы можете скачивать файлы