1 сезон

3 сезон

iTunes

1

iTunes

DUB Netflix

iTunes

13

1 сезон

RePack

30

Deluxe

pack

Легкие деньги

ВАЖНО

ИГРА 18+

pack

RePack

MK11

RePack

jed

RePack

fifa19

RePack

RDR2

RePack

NEED FOR SPEED™ PAYBACK

4 сезон

9 сезон

Бесстыжие 9 сезон

Все сериалы

все сериалы на PB.wtf

RePack

FAR CRY 5

Anonymous, добрый вечер, мы не успеваем до 1 числа собрать деньги на оплату серверов, помогите нам пожалуйста в это трудное время. В качестве благодарности мы отключим Вам всю рекламу на сайте (укажите свой ник в строку Ваше имя)!

×
  
Magnet ссылка

Маленькие происшествия / Little Accidents (Сара Коланджело / Sara Colangelo) [2014, США, драма, HDRip, Любительский (одноголосый) [Pashaup] piratbit.pw

Маленькие происшествия через торрент piratbit.pw

Размер: 1.37 GB | Добавлен: 6 лет 3 мес. назад | Торрент скачан:72 раза
Скачать  

02-03-2015 12:50 Маленькие происшествия Скачать торрент  

Маленькие происшествия / Little Accidents


  • Год выпуска: 2014
  • Страна: США
  • Жанр: драма
  • Продолжительность: 01:44:41
  • Перевод: Любительский (одноголосый) [Pashaup]
  • Субтитры: Русские (вшитые)
  • Режиссер: Сара Коланджело / Sara Colangelo
  • В ролях:

    Элизабет Бэнкс (Diane Doyle), Бойд Холбрук (Amos Jenkins), Клоэ Севиньи (Kendra), Джейкоб Лофленд (Owen), Джош Лукас (Bill Doyle), Алексия Расмуссен (Nellie), Джеймс ДеФорест Паркер (Basil), Бо Райт (James), Трэвис Тоуп (JT Doyle), Рэнди Спрингер (John McAlister), М. Шэйн Эбелл (Bar friend, озвучка), Грант Бауман (Justin)

  • Описание:
    В маленьком американском городке, в угольной шахте которого не так давно случилась страшная авария, исчезновение подростка сводит вместе выжившего шахтера, одинокую жену управляющего шахтой и местного паренька...
  • Рейтинг:



  • Качество: HDRip
  • Формат: :AVI
  • Видео кодек: XviD
  • Аудио кодек: AC3
  • Видео: 720x304 (2.35:1), 1674 kbps, 23,976 fps, 0,319 bpp
  • Аудио: 2.0 / 48 kHz / 192 kbps / 16 bit
  • Релиз от: GEKADOL

    Код:

    General
    Complete name                            : I:\Little.Accidents.2014.avi
    Format                                   : AVI
    Format/Info                              : Audio Video Interleave
    File size                                : 1.37 GiB
    Duration                                 : 1h 44mn
    Overall bit rate                         : 1 876 Kbps
    Writing application                      : VirtualDubMod 1.5.10.2 (build 2540/release)
    Writing library                          : VirtualDubMod build 2540/release

    Video
    ID                                       : 0
    Format                                   : MPEG-4 Visual
    Format profile                           : Advanced Simple@L5
    Format settings, BVOP                    : 1
    Format settings, QPel                    : No
    Format settings, GMC                     : No warppoints
    Format settings, Matrix                  : Default (H.263)
    Muxing mode                              : Packed bitstream
    Codec ID                                 : XVID
    Codec ID/Hint                            : XviD
    Duration                                 : 1h 44mn
    Bit rate                                 : 1 675 Kbps
    Width                                    : 720 pixels
    Height                                   : 304 pixels
    Display aspect ratio                     : 2.35:1
    Frame rate                               : 23.976 fps
    Color space                              : YUV
    Chroma subsampling                       : 4:2:0
    Bit depth                                : 8 bits
    Scan type                                : Progressive
    Compression mode                         : Lossy
    Bits/(Pixel*Frame)                       : 0.319
    Stream size                              : 1.22 GiB (89%)
    Writing library                          : XviD 64

    Audio
    ID                                       : 1
    Format                                   : AC-3
    Format/Info                              : Audio Coding 3
    Mode extension                           : CM (complete main)
    Codec ID                                 : 2000
    Duration                                 : 1h 44mn
    Bit rate mode                            : Constant
    Bit rate                                 : 192 Kbps
    Channel(s)                               : 2 channels
    Channel positions                        : Front: L R
    Sampling rate                            : 48.0 KHz
    Bit depth                                : 16 bits
    Compression mode                         : Lossy
    Stream size                              : 144 MiB (10%)
    Alignment                                : Split accross interleaves
    Interleave, duration                     : 42 ms (1.00 video frame)
    Interleave, preload duration             : 500 ms




    Скриншоты:
    скриншот   скриншот   скриншот   скриншот   скриншот  
    скриншот  


    piratbit.pw



  • Скачать Маленькие происшествия через торрент http://i59.fastpic.ru/big/2015/0302/65/b16ccdc2216a6e8c8544193759fb3e65.jpg Скачать фильм Маленькие происшествия через торрент бесплантно в хорошем качестве Описание: В маленьком американском городке, в угольной шахте которого не так давно случилась страшная авария, исчезновение подростка сводит ... 10 10 2
    Торрент: Зарегистрирован [2015-03-02 12:50] · скачан: 72 раз
    Статус: √ проверено
    Размер: 1.37 GB
    Как cкачать? Как скачать Маленькие происшествия через торрент | UTorrent

    28-11-2019 20:33  

    Отключить всю рекламу на сайте

      Дорогой пользователь! Огромная просьба, поблагодарите релизера, оцените раздачу и оставьте свои комментарий, если Вы скачали Маленькие происшествия через торрент бесплатно! Внесите свою лепту в развитие PiratBit!
      Комментировать посты могут только пользователи прошедшие не сложную регистрацию
      Показать сообщения:    

      Маленькие происшествия через торрент
      Скачать бесплатно Маленькие происшествия
      Маленькие происшествия скачать торрент
      Маленькие происшествия смотреть онлайн
      Cкачать фильм Маленькие происшествия бесплатно
      Маленькие происшествия скачать торрент в хорошем качестве
      Маленькие происшествия смотреть онлайн бесплатно в хорошем качестве


      Вы не можете начинать темы
      Вы не можете отвечать на сообщения
      Вы не можете редактировать свои сообщения
      Вы не можете удалять свои сообщения
      Вы не можете голосовать в опросах
      Вы не можете прикреплять файлы к сообщениям
      Вы можете скачивать файлы