1 сезон

3 сезон

iTunes

1

iTunes

DUB Netflix

iTunes

13

1 сезон

RePack

30

Deluxe

pack

Легкие деньги

ВАЖНО

ИГРА 18+

pack

RePack

MK11

RePack

jed

RePack

fifa19

RePack

RDR2

RePack

NEED FOR SPEED™ PAYBACK

4 сезон

9 сезон

Бесстыжие 9 сезон

Все сериалы

все сериалы на PB.wtf

RePack

FAR CRY 5

Anonymous, доброе утро, мы не успеваем до 1 числа собрать деньги на оплату серверов, помогите нам пожалуйста в это трудное время. В качестве благодарности мы отключим Вам всю рекламу на сайте (укажите свой ник в строку Ваше имя)!

×
  
Magnet ссылка

Шлюшка для Ктулху / Call Girl of Cthulhu (Chris LaMartina) [2014, США, ужасы, комедия, DVDRip, Любительский (двухголосый)] piratbit.pw

Шлюшка для Ктулху через торрент piratbit.pw

Размер: 1.37 GB | Добавлен: 6 лет 3 мес. назад | Торрент скачан:170 раз
Скачать  

26-02-2015 00:11 Шлюшка для Ктулху Скачать торрент  

Шлюшка для Ктулху / Call Girl of Cthulhu

Год выпуска: 2014
Страна: США
Жанр: ужасы, комедия
Продолжительность: 01:32:27
Перевод: Любительский (двухголосый)
Субтитры: Отсутствует
Режиссер: Chris LaMartina
В ролях:


David Phillip Carollo (Carter Wilcox), Melissa O'Brien (Riley Whatley), Николетт Ле Фэй (Erica Zann), Dave Gamble (Sebastian Suydum), Helenmary Ball (Professor Edna Curwen), Sabrina Taylor-Smith (Squid), Alex Mendez (Rick «The Dick» Pickman), Craig Peter Coletta (Wilbur), Elena Rose (Whitney), Джордж Стоувер (Walter Delapore), Лиана Чемиш (Detective Rita LaGrassi), Трой Дженнингс (Ashton Eibon)

Описание:
Жил-был художник один, домик имел и холсты...И влюбился он в шлюху со странной родинкой на жопе. И не знал он, что шлюхе этой предначертано начать армагеддон и только он сможет остановить уничтожение всего человечества.

Рейтинг:

Качество: DVDRip
Формат: AVI
Видео кодек:XviD
Аудио кодек:AC3
Видео: XviD, 720x400 (16:9), 1832 kbps, 23,976 fps, 0,265 bpp
Аудио: AC3 / 2.0 / 48 kHz / 192 kbps / 16 bit - Любительский двухголосый [DeadSno & den904] - перевод на русский язык [dsa69]

General
Complete name : D:\_uTorrent_\Devushka.po.vyzovu.dlja.Ktulhu.2014.L2.DVDRip.avi
Format : AVI
Format/Info : Audio Video Interleave
File size : 1.37 GiB
Duration : 1h 32mn
Overall bit rate : 2 117 Kbps
Writing application : VirtualDubMod 1.5.10.3 | www.virtualdub-fr.org || (build 2550/release)
Writing library : VirtualDubMod build 2550/release

Video
ID : 0
Format : MPEG-4 Visual
Format profile : Advanced Simple@L5
Format settings, BVOP : 1
Format settings, QPel : No
Format settings, GMC : No warppoints
Format settings, Matrix : Custom
Codec ID : XVID
Codec ID/Hint : XviD
Duration : 1h 32mn
Bit rate : 1 832 Kbps
Width : 720 pixels
Height : 400 pixels
Display aspect ratio : 16:9
Frame rate : 23.976 fps
Color space : YUV
Chroma subsampling : 4:2:0
Bit depth : 8 bits
Scan type : Progressive
Compression mode : Lossy
Bits/(Pixel*Frame) : 0.265
Stream size : 1.18 GiB (87%)
Writing library : XviD 73

Audio
ID : 1
Format : AC-3
Format/Info : Audio Coding 3
Mode extension : CM (complete main)
Codec ID : 2000
Duration : 1h 32mn
Bit rate mode : Constant
Bit rate : 192 Kbps
Channel(s) : 2 channels
Channel positions : Front: L R
Sampling rate : 48.0 KHz
Bit depth : 16 bits
Compression mode : Lossy
Stream size : 127 MiB (9%)
Alignment : Split accross interleaves

[/code]
piratbit.pw



Скачать Шлюшка для Ктулху через торрент http://i64.fastpic.ru/big/2015/0226/9a/2182ca043370aa4a47df1b5dab75f89a.png Скачать фильм Шлюшка для Ктулху через торрент бесплантно в хорошем качестве Описание: Жил-был художник один, домик имел и холсты...И влюбился он в шлюху со странной родинкой на жопе. И не знал он, что шлюхе этой ... 7.9 10 15
Торрент: Зарегистрирован [2015-02-26 00:11] · скачан: 170 раз
Статус: √ проверено
Размер: 1.37 GB
Как cкачать? Как скачать Шлюшка для Ктулху через торрент | UTorrent

28-11-2019 20:33  

Отключить всю рекламу на сайте

26-02-2015 02:30 Шлюшка для Ктулху Скачать торрент  

какая-то карамельная масса на третьем скрине-видимо это спецэффектpiratbit.pw



26-02-2015 02:37 Шлюшка для Ктулху Скачать торрент  

а игра про cthulhu-просто шэдэвральная-очень высококачественнаяpiratbit.pw



26-02-2015 08:11 Шлюшка для Ктулху Скачать торрент  

А на первом скрине наш Андрей Бурковский? (Валера) :pleasantry: :pleasantry:piratbit.pw



26-02-2015 19:06 Шлюшка для Ктулху Скачать торрент  

На третьем скрине торт для Порашенко от его мамыpiratbit.pw



26-02-2015 19:10 Шлюшка для Ктулху Скачать торрент  

Жил-был художник один, домик имел и холсты...И влюбился он в шлюху со странной родинкой на жопе. И не знал он, что шлюхе этой предначертано начать армагеддон и только он сможет остановить уничтожение всего человечества.
sarcastic rofl rofl roflpiratbit.pw



27-02-2015 06:59 Шлюшка для Ктулху Скачать торрент  

Мдяяя описание радует, побольше бы такого нормального и чистого, русского!piratbit.pw



28-02-2015 06:42 Шлюшка для Ктулху Скачать торрент  

operokunp писал(а):

На третьем скрине торт для Порашенко от его мамы

piratbit.pw



    Дорогой пользователь! Огромная просьба, поблагодарите релизера, оцените раздачу и оставьте свои комментарий, если Вы скачали Шлюшка для Ктулху через торрент бесплатно! Внесите свою лепту в развитие PiratBit!
    Комментировать посты могут только пользователи прошедшие не сложную регистрацию
    Показать сообщения:    

    Шлюшка для Ктулху через торрент
    Скачать бесплатно Шлюшка для Ктулху
    Шлюшка для Ктулху скачать торрент
    Шлюшка для Ктулху смотреть онлайн
    Cкачать фильм Шлюшка для Ктулху бесплатно
    Шлюшка для Ктулху скачать торрент в хорошем качестве
    Шлюшка для Ктулху смотреть онлайн бесплатно в хорошем качестве


    Вы не можете начинать темы
    Вы не можете отвечать на сообщения
    Вы не можете редактировать свои сообщения
    Вы не можете удалять свои сообщения
    Вы не можете голосовать в опросах
    Вы не можете прикреплять файлы к сообщениям
    Вы можете скачивать файлы