1 сезон

3 сезон

iTunes

1

iTunes

DUB Netflix

iTunes

13

1 сезон

RePack

30

Deluxe

pack

Легкие деньги

ВАЖНО

ИГРА 18+

pack

RePack

MK11

RePack

jed

RePack

fifa19

RePack

RDR2

RePack

NEED FOR SPEED™ PAYBACK

4 сезон

9 сезон

Бесстыжие 9 сезон

Все сериалы

все сериалы на PB.wtf

RePack

FAR CRY 5

Anonymous, доброе утро, мы не успеваем до 1 числа собрать деньги на оплату серверов, помогите нам пожалуйста в это трудное время. В качестве благодарности мы отключим Вам всю рекламу на сайте (укажите свой ник в строку Ваше имя)!

×
  
Magnet ссылка

Капитан Саблезуб и сокровища Лама Рама / Kaptein Sabeltann og skatten i Lama Rama (Йон Андреас Андерсен / John Andreas Andersen, Лиза Мари Гамлем / Lisa Marie Gamlem) [2014, Норвегия, приключения, DVDRip) VO (Виктор Береговых) piratbit.pw

Капитан Саблезуб и сокровища Лама Рама через торрент piratbit.pw

Размер: 1.38 GB | Добавлен: 6 лет 3 мес. назад | Торрент скачан:220 раз
Скачать  

24-02-2015 05:19 Капитан Саблезуб и сокровища Лама Рама Скачать торрент  

Капитан Саблезуб и сокровища Лама Рама / Kaptein Sabeltann og skatten i Lama Rama


  • Год выпуска: 2014
  • Страна: Норвегия
  • Жанр: приключения
  • Продолжительность: 01:32:26
  • Перевод: Любительский (одноголосый) (Виктор Береговых) - по переводу Михаила Васильева

  • Режиссер: Йон Андреас Андерсен / John Andreas Andersen, Лиза Мари Гамлем / Lisa Marie Gamlem
  • В ролях:

    Тува Новотны (Frida), Андерс Баасмо Кристиансен (King Rufus), Фридтьов Сохейм (Bjørn Barsk), Одд Магнус Уильямсон (Langemann), Карре Хаген Сиднесс (Captain Sabertooth), Пиа Тьелта (Rosa), Йон Ёигарден (Prince Badal), Роберт Скйэрстад (Skalken), Нильс Йорген Каалстад (Dankert), Хами Белаль (Royal Guard), Vinjar Pettersen (Pinky), Янне Формоэ (Main Guard)

  • Описание:
    Отважный и самоуверенный капитан Саблезуб бороздит моря и океаны со своей командой в поисках сокровищ. Естественно, в пути они переживают массу приключений: на них нападает целая армия злобных обезьян, их судно угоняет конкурирующая шайка пиратов, они оказываются участниками государственного переворота, а в довершении всего, у них юнга, который не умеет плавать…
  • Рейтинг:



  • Качество: DVDRip
  • Формат: :AVI
  • Видео кодек: XviD
  • Аудио кодек: AC3
  • Видео: 720x304 (2.35:1), 1870 kbps, 25 fps, 0,342 bpp
  • Аудио: 2.0 / 48 kHz / 256 kbps / 16 bit
  • Релиз от: GEKADOL

    Код:

    General
    Complete name                            : D:\Фильмы\Капитан Саблезуб и сокровища Лама Рама.avi
    Format                                   : AVI
    Format/Info                              : Audio Video Interleave
    File size                                : 1.38 GiB
    Duration                                 : 1h 32mn
    Overall bit rate                         : 2 137 Kbps
    Writing application                      : VirtualDubMod 1.5.10.2 (build 2540/release)
    Writing library                          : VirtualDubMod build 2540/release

    Video
    ID                                       : 0
    Format                                   : MPEG-4 Visual
    Format profile                           : Advanced Simple@L5
    Format settings, BVOP                    : 3
    Format settings, QPel                    : No
    Format settings, GMC                     : No warppoints
    Format settings, Matrix                  : Custom
    Codec ID                                 : XVID
    Codec ID/Hint                            : XviD
    Duration                                 : 1h 32mn
    Bit rate                                 : 1 871 Kbps
    Width                                    : 720 pixels
    Height                                   : 304 pixels
    Display aspect ratio                     : 2.35:1
    Frame rate                               : 25.000 fps
    Color space                              : YUV
    Chroma subsampling                       : 4:2:0
    Bit depth                                : 8 bits
    Scan type                                : Progressive
    Compression mode                         : Lossy
    Bits/(Pixel*Frame)                       : 0.342
    Stream size                              : 1.21 GiB (88%)
    Writing library                          : XviD 1.2.1 (UTC 2008-12-04)

    Audio
    ID                                       : 1
    Format                                   : AC-3
    Format/Info                              : Audio Coding 3
    Mode extension                           : CM (complete main)
    Codec ID                                 : 2000
    Duration                                 : 1h 32mn
    Bit rate mode                            : Constant
    Bit rate                                 : 256 Kbps
    Channel(s)                               : 2 channels
    Channel positions                        : Front: L R
    Sampling rate                            : 48.0 KHz
    Bit depth                                : 16 bits
    Compression mode                         : Lossy
    Stream size                              : 169 MiB (12%)
    Alignment                                : Split accross interleaves
    Interleave, duration                     : 40 ms (1.00 video frame)
    Interleave, preload duration             : 500 ms




    Скриншоты:



    piratbit.pw



  • Скачать Капитан Саблезуб и сокровища Лама Рама через торрент http://i68.fastpic.ru/big/2015/0224/c7/db96669d841a5e8049ce5dd4073e84c7.jpg Скачать фильм Капитан Саблезуб и сокровища Лама Рама через торрент бесплантно в хорошем качестве Описание: Отважный и самоуверенный капитан Саблезуб бороздит моря и океаны со своей командой в поисках сокровищ. Естественно, в пути они ... 9.3 10 8
    Торрент: Зарегистрирован [2015-02-24 05:19] · скачан: 220 раз
    Статус: √ проверено
    Размер: 1.38 GB
    Как cкачать? Как скачать Капитан Саблезуб и сокровища Лама Рама через торрент | UTorrent

    28-11-2019 20:33  

    Отключить всю рекламу на сайте

      Дорогой пользователь! Огромная просьба, поблагодарите релизера, оцените раздачу и оставьте свои комментарий, если Вы скачали Капитан Саблезуб и сокровища Лама Рама через торрент бесплатно! Внесите свою лепту в развитие PiratBit!
      Комментировать посты могут только пользователи прошедшие не сложную регистрацию
      Показать сообщения:    

      Капитан Саблезуб и сокровища Лама Рама через торрент
      Скачать бесплатно Капитан Саблезуб и сокровища Лама Рама
      Капитан Саблезуб и сокровища Лама Рама скачать торрент
      Капитан Саблезуб и сокровища Лама Рама смотреть онлайн
      Cкачать фильм Капитан Саблезуб и сокровища Лама Рама бесплатно
      Капитан Саблезуб и сокровища Лама Рама скачать торрент в хорошем качестве
      Капитан Саблезуб и сокровища Лама Рама смотреть онлайн бесплатно в хорошем качестве


      Вы не можете начинать темы
      Вы не можете отвечать на сообщения
      Вы не можете редактировать свои сообщения
      Вы не можете удалять свои сообщения
      Вы не можете голосовать в опросах
      Вы не можете прикреплять файлы к сообщениям
      Вы можете скачивать файлы